Rogue One - A Star Wars Story 2016 BluRay 10Bit 1080p Multi H265-d3g - Torrenting.com

Rogue One - A Star Wars Story 2016 BluRay 10Bit 1080p Multi H265-d3g

[FreeLeech]

Category: Movies/x265| Size: 11.22 GB| Added: 2017-09-25 15:24:16

Download
SubscribeBookmark Report

4 0

Rogue One (2016)

Action, Adventure, Sci-Fi
Ratings: 7.8 / 10
Votes: 493,848 People
The daughter of an Imperial scientist joins the Rebel Alliance in a risky move to steal the Death Star plans.
Actors: Felicity Jones, Diego Luna, Alan Tudyk, Donnie Yen, Wen Jiang, Ben Mendelsohn, Guy Henry, Forest Whitaker, Riz Ahmed, Mads Mikkelsen, Jimmy Smits, Alistair Petrie, Genevieve O'Reilly, Ben Daniels, Paul Kasey


[IMG]hxxp://lookpic.com/O/i2/1128/Xof7QwlY.jpeg[/IMG]

Rogue One - A Star Wars Story 2016 BluRay 10Bit 1080p Multi H265-d3g



Former scientist Galen Erso lives on a farm with his wife and young daughter, Jyn. His peaceful existence comes crashing down when the evil Orson Krennic takes him away from his beloved family. Many years later, Galen becomes the Empire's lead engineer for the most powerful weapon in the galaxy, the Death Star. Knowing that her father holds the key to its destruction, Jyn joins forces with a spy and other resistance fighters to steal the space station's plans for the Rebel Alliance.
Release date: December 10, 2016 (Hollywood)

IMDb: http://www.imdb.com/title/tt3748528/



[IMG]hxxp://lookpic.com/O/i2/213/G2r1eprC.png[/IMG]
======================
[IMG]hxxp://lookpic.com/O/i2/1988/PNlE2jo1.png[/IMG]
======================
[IMG]hxxp://lookpic.com/O/i2/792/65Eaocds.png[/IMG]
======================
[IMG]hxxp://lookpic.com/O/i2/362/cjbyEVgI.png[/IMG]
======================
[IMG]hxxp://lookpic.com/O/i2/751/UvfwfiuX.png[/IMG]
======================
[IMG]hxxp://lookpic.com/O/i2/346/AlQ01RAb.png[/IMG]
======================


Source: BluRay ISO
Format : Matroska
Format version : Version 4 / Version 2
File size : 11.2 GiB
Duration : 2 h 13 min
Overall bit rate : 12.0 Mb/s
Movie name : Rogue One - A Star Wars Story 2016 BluRay 10Bit 1080p Multi H265-d3g
Encoded date : UTC 2017-09-24 12:08:44
Writing application : DVDFab 10.0.6.0
Writing library : libebml v1.3.4 + libmatroska v1.4.5

Video
ID : 1
Format : HEVC
Format/Info : High Efficiency Video Coding
Format profile : Main 10@L4@Main
Codec ID : V_MPEGH/ISO/HEVC
Duration : 2 h 13 min
Bit rate : 5 556 kb/s
Width : 1 920 pixels
Height : 804 pixels
Display aspect ratio : 2.40:1
Frame rate mode : Constant
Frame rate : 23.976 (24000/1001) FPS
Color space : YUV
Chroma subsampling : 4:2:0
Bit depth : 10 bits
Bits/(Pixel*Frame) : 0.150
Stream size : 5.19 GiB (46%)
Default : Yes
Forced : No
Color range : Limited
Color primaries : BT.709
Transfer characteristics : BT.709
Matrix coefficients : BT.709

Audio #1
ID : 2
Format : DTS
Format/Info : Digital Theater Systems
Format profile : MA / Core
Mode : 16
Format settings, Endianness : Big
Codec ID : A_DTS
Duration : 2 h 13 min
Bit rate mode : Variable / Constant
Bit rate : 5 135 kb/s / 1 509 kb/s
Channel(s) : 8 channels / 6 channels
Channel positions : Front: L C R, Side: L R, Back: L R, LFE / Front: L C R, Side: L R, LFE
Sampling rate : 48.0 kHz
Frame rate : 93.750 FPS (512 SPF)
Bit depth : 24 bits
Compression mode : Lossless / Lossy
Stream size : 4.80 GiB (43%)
Language : English
Default : Yes
Forced : No

Audio #2
ID : 3
Format : AC-3
Format/Info : Audio Coding 3
Format settings, Endianness : Big
Codec ID : A_AC3
Duration : 2 h 13 min
Bit rate mode : Constant
Bit rate : 640 kb/s
Channel(s) : 6 channels
Channel positions : Front: L C R, Side: L R, LFE
Sampling rate : 48.0 kHz
Frame rate : 31.250 FPS (1536 SPF)
Bit depth : 16 bits
Compression mode : Lossy
Stream size : 613 MiB (5%)
Language : French
Service kind : Complete Main
Default : No
Forced : No

Audio #3
ID : 4
Format : AC-3
Format/Info : Audio Coding 3
Format settings, Endianness : Big
Codec ID : A_AC3
Duration : 2 h 13 min
Bit rate mode : Constant
Bit rate : 640 kb/s
Channel(s) : 6 channels
Channel positions : Front: L C R, Side: L R, LFE
Sampling rate : 48.0 kHz
Frame rate : 31.250 FPS (1536 SPF)
Bit depth : 16 bits
Compression mode : Lossy
Stream size : 613 MiB (5%)
Language : Spanish
Service kind : Complete Main
Default : No
Forced : No

Text #1
ID : 5
Format : VobSub
Codec ID : S_VOBSUB
Codec ID/Info : Picture based subtitle format used on DVDs
Duration : 2 h 5 min
Bit rate : 8 877 b/s
Count of elements : 1830
Stream size : 7.97 MiB (0%)
Language : English
Default : No
Forced : No

Text #2
ID : 6
Format : VobSub
Codec ID : S_VOBSUB
Codec ID/Info : Picture based subtitle format used on DVDs
Duration : 2 h 6 min
Bit rate : 7 291 b/s
Count of elements : 1534
Stream size : 6.62 MiB (0%)
Language : French
Default : No
Forced : No

Text #3
ID : 7
Format : VobSub
Codec ID : S_VOBSUB
Codec ID/Info : Picture based subtitle format used on DVDs
Duration : 2 h 5 min
Bit rate : 7 326 b/s
Count of elements : 1501
Stream size : 6.57 MiB (0%)
Language : Spanish
Default : No
Forced : No

[img]hxxp://lookpic.com/O/t2/1821/vbV0GGOB.png[/img]





Just exactly what is 10 Bit Color Depth vs. 8 Bit Color Depth?
Here is one of the best explanations I have found.



Enjoy!








Related Torrents
Type Name Size
Movies Rogue One 2016 BRRip XviD AC3-EVO New!
2 years and 8 months ago
01.55 GB10 0
Movies Rogue One 2016 1080p BRRip X264 AC3-EVO New!
2 years and 8 months ago
04.21 GB3 0
Movies/HD Rogue One 2016 1080p BluRay x264-SPARKS New!
2 years and 8 months ago
09.89 GB2 0
Movies Rogue One A Star Wars Story 2016 HDCAM UnKnOwN New!
2 years and 11 months ago
01.58 GB2 0
Movies Rogue One A Star Wars Story 2016 HDTS x264-VAiN New!
2 years and 10 months ago
01.50 GB1 0

<< 1 - 5 >>

martink

(Power User)

:t74: Thank You :t74:

sandyp

(VIP)

cclick

marchant

(Power User)

:t76:

rbpublic

(Power User)

Thank You!  :t61:

Alleybowl

(Power User)

thanks

<< 1 - 5 >>