Constantine S01 Season 1 720p BluRay x264 MKV (ShAaNiG) - Torrenting.com

Constantine S01 Season 1 720p BluRay x264 MKV (ShAaNiG)

Category: TV/Packs| Size: 4.99 GB| Added: 2017-06-24 02:22:47

Download
SubscribeBookmark Report

1 0

Constantine (2014)

Drama, Fantasy, Horror, Thriller
Ratings: 7.5 / 10
Votes: 46,281 People
A man struggling with his faith who is haunted by the sins of his past is suddenly thrust into the role of defending humanity from the gathering...
Actors: Matt Ryan, Harold Perrineau, Angélica Celaya, Charles Halford




Constantine - Season 1/The Complete Series (2014)

Plot

A man struggling with his faith who is haunted by the sins of his past is suddenly thrust into the role of defending humanity from the gathering forces of darkness.

IMDB: http://www.imdb.com/title/tt3489184/

Cast

Matt Ryan - John Constantine
Harold Perrineau - Manny
Angélica Celaya - Zed Martin
Charles Halford - Chas Chandler

         
Infomation



Format                      : Matroska
Format version              : Version 2

Video
ID                          : 1
Format                      : AVC
Format/Info                 : Advanced Video Codec
Format profile              : High@L4
Format settings, CABAC      : Yes
Format settings, ReFrames   : 5 frames
Codec ID                    : V_MPEG4/ISO/AVC
Duration                    : 43 min 5 s
Bit rate                    : 1 232 kb/s
Width                       : 1 280 pixels
Height                      : 720 pixels
Display aspect ratio        : 16:9
Frame rate mode             : Constant
Frame rate                  : 23.976 (24000/1001) FPS
Color space                 : YUV
Chroma subsampling          : 4:2:0
Bit depth                   : 8 bits
Scan type                   : Progressive
Bits/(Pixel*Frame)          : 0.056
Stream size                 : 379 MiB (95%)
Writing library             : x264 core 133 r2334 a3ac64b
Encoding settings           : cabac=1 / ref=5 / deblock=1:-1:-1 / analyse=0x3:0x113 / me=umh / subme=7 / psy=1 / psy_rd=1.00:0.00 / mixed_ref=1 / me_range=16 / chroma_me=1 / trellis=2 / 8x8dct=1 / cqm=0 / deadzone=21,11 / fast_pskip=1 / chroma_qp_offset=-2 / threads=48 / lookahead_threads=5 / sliced_threads=0 / nr=0 / decimate=1 / interlaced=0 / bluray_compat=0 / constrained_intra=0 / bframes=3 / b_pyramid=0 / b_adapt=1 / b_bias=0 / direct=3 / weightb=1 / open_gop=0 / weightp=2 / keyint=240 / keyint_min=23 / scenecut=40 / intra_refresh=0 / rc_lookahead=40 / rc=2pass / mbtree=1 / bitrate=1232 / ratetol=1.0 / qcomp=0.60 / qpmin=10 / qpmax=51 / qpstep=4 / cplxblur=20.0 / qblur=0.5 / vbv_maxrate=20000 / vbv_bufsize=25000 / nal_hrd=none / ip_ratio=1.40 / aq=1:1.00
Default                     : Yes
Forced                      : No

Audio
ID                          : 2
Format                      : AAC
Format/Info                 : Advanced Audio Codec
Format profile              : HE-AAC / LC
Codec ID                    : A_AAC
Duration                    : 43 min 5 s
Bit rate                    : 64.0 kb/s
Channel(s)                  : 2 channels
Channel positions           : Front: L R
Sampling rate               : 48.0 kHz / 24.0 kHz
Frame rate                  : 23.438 FPS (1024 spf)
Compression mode            : Lossy
Delay relative to video     : 31 ms
Stream size                 : 19.7 MiB (5%)
Default                     : Yes
Forced                      : No




Many thanks to ShAaNiG!



Related Torrents
Type Name Size
TV/Packs Constantine S01 480p x264-ZMNT [Freeleech]New!
3 months and 1 week ago
02.27 GB8 0
TV/Packs Constantine S01 720p x265-ZMNT [Freeleech]New!
3 months and 1 week ago
04.27 GB6 0
TV/Packs Constantine S01 XviD-ZMNT [Freeleech]New!
3 months and 1 week ago
04.61 GB2 0
TV/Packs CONSTANTINE S01 2014 BluRay 10Bit 1080p Dts-HD Ma5 1 H265-d3g [Freeleech]New!
2 years and 2 months ago
026.75 GB0 0

<< 1 - 6 >>

Thanks Mate

kanelives

(Power User)

:t53:  :t53:  :t73:
:t113: Thank you

OzOZ

(Power User)

Thank you very much, my friend
I hope you upload other ShAaNiG TV series packs

Awesome44

(Power User)

Thanks

martysmart

(Power User)

thx

<< 1 - 6 >>