Do Not Resist 2016 HDRIP x264 AC3 TiTAN - Torrenting.com

Do Not Resist 2016 HDRIP x264 AC3 TiTAN

Category: Movies| Size: 1.26 GB| Added: 2016-12-21 22:25:32

Download
SubscribeBookmark Report

0 0

Do Not Resist (2017)

Ratings: 7 / 10
Votes: 1,011 People
An account of the increasing use of military weapons and tactics by local law enforcement in the United States, counterpointed with civil unrest in...
Actors: James Comey, Dave Grossman, Rand Paul


http://www.imdb.com/title/tt5557976/

Source: 720p WEB

General

Format : Matroska
Format version : Version 2
File size : 1.26 GiB
Duration : 1 h 12 min
Overall bit rate mode : Variable
Overall bit rate : 2 485 kb/s

Video

ID : 1
Format : AVC
Format/Info : Advanced Video Codec
Format profile : High@L4.1
Format settings, CABAC : Yes
Format settings, ReFrames : 3 frames
Codec ID : V_MPEG4/ISO/AVC
Duration : 1 h 12 min
Bit rate mode : Variable
Bit rate : 2 100 kb/s
Maximum bit rate : 40.0 Mb/s
Width : 720 pixels
Height : 400 pixels
Display aspect ratio : 16:9
Frame rate mode : Constant
Frame rate : 23.976 (24000/1001) FPS
Color space : YUV
Chroma subsampling : 4:2:0
Bit depth : 8 bits
Scan type : Progressive
Bits/(Pixel*Frame) : 0.304
Stream size : 1.06 GiB (84%)
Writing library : x264 core 148 r2638 7599210
Default : Yes
Forced : No
Color range : Full
Color primaries : BT.709
Transfer characteristics : BT.709
Matrix coefficients : BT.709

Audio

ID : 2
Format : AC-3
Format/Info : Audio Coding 3
Mode extension : CM (complete main)
Format settings, Endianness : Big
Codec ID : A_AC3
Duration : 1 h 12 min
Bit rate mode : Constant
Bit rate : 384 kb/s
Channel(s) : 6 channels
Channel positions : Front: L C R, Side: L R, LFE
Sampling rate : 48.0 kHz
Frame rate : 31.250 FPS (1536 spf)
Compression mode : Lossy
Stream size : 199 MiB (15%)
Language : English
Default : Yes
Forced : No

Text

ID : 3
Format : UTF-8
Codec ID : S_TEXT/UTF8
Codec ID/Info : UTF-8 Plain Text
Duration : 1 h 8 min
Bit rate : 95 b/s
Count of elements : 1008
Stream size : 47.8 KiB (0%)
Language : English
Default : No
Forced : No





<< 1 - 11 >>

rollymojica

(Power User)

thanks
Thank you, its a worry

mixmstr

(User)

Thanks... :t43:
thank you  :t46:

glady

(Power User)

:t48: thanks
THANX  :t53:

chinaraven

(Power User)

thanks

gazman44

(Power User)

If you live in the US and dont know this then your going to be shocked!

macro2020

(Power User)

Thanks

<< 1 - 11 >>