Rogue One A Star Wars Story 2016 HDTS x264-VAiN - Torrenting.com

Rogue One A Star Wars Story 2016 HDTS x264-VAiN

Category: Movies| Size: 1.50 GB| Added: 2016-12-21 21:53:23

Download
SubscribeBookmark Report

0 1

Rogue One (2016)

Action, Adventure, Sci-Fi
Ratings: 7.8 / 10
Votes: 497,121 People
The daughter of an Imperial scientist joins the Rebel Alliance in a risky move to steal the Death Star plans.
Actors: Felicity Jones, Diego Luna, Alan Tudyk, Donnie Yen, Wen Jiang, Ben Mendelsohn, Guy Henry, Forest Whitaker, Riz Ahmed, Mads Mikkelsen, Jimmy Smits, Alistair Petrie, Genevieve O'Reilly, Ben Daniels, Paul Kasey


P R E S E N T S . . . .

Rogue.One.A.Star.Wars.Story.2016.HDCAM.x264-VAiN

iMDB........: http://www.imdb.com/title/tt3748528/



T E C H N i C A L . i N F O . . .

Basic Information
Format : Matroska
Format version : Version 4 / Version 2
File size : 1.49 GiB
Duration : 2 h 5 min
Overall bit rate : 1 695 kb/s
Encoded date : UTC 2016-12-21 19:21:13
Writing application : mkvmerge v9.6.0 ('Slave To Your Mind') 32bit
Writing library : libebml v1.3.4 + libmatroska v1.4.5

Video
ID : 1
Format : AVC
Format/Info : Advanced Video Codec
Format profile : High 10@L3
Format settings, CABAC : Yes
Format settings, ReFrames : 4 frames
Codec ID : V_MPEG4/ISO/AVC
Duration : 2 h 5 min
Bit rate : 1 565 kb/s
Width : 720 pixels
Height : 288 pixels
Display aspect ratio : 2.500
Frame rate mode : Constant
Frame rate : 29.970 (30000/1001) FPS
Color space : YUV
Chroma subsampling : 4:2:0
Bit depth : 10 bits
Scan type : Progressive
Bits/(Pixel*Frame) : 0.252
Stream size : 1.37 GiB (92%)
Writing library : x264 core 148 r2744 b97ae06
Default : No
Forced : No

Audio
ID : 2
Format : AC-3
Format/Info : Audio Coding 3
Mode extension : CM (complete main)
Format settings, Endianness : Big
Codec ID : A_AC3
Duration : 2 h 5 min
Bit rate mode : Constant
Bit rate : 128 kb/s
Channel(s) : 2 channels
Channel positions : Front: L R
Sampling rate : 48.0 kHz
Frame rate : 31.250 FPS (1536 spf)
Bit depth : 16 bits
Compression mode : Lossy
Delay relative to video : 200 ms
Stream size : 115 MiB (8%)
Default : Yes
Forced : No








E N C O D E R S . N O T E S . . .

SOURCE......: ViDEO... UnKnOwN da man, the myth the ledgend
............: AUDiO... Lucis Films a.k.a. CPG LOL cheers bro
SAMPLE......: Yippers
ADDED NOTE..: The poo was strong with this one. cropped, chopped, resized to begin with. then spent few hours on creating the perfect script to fix details, rgb, whites, blacks, sharpness etc.... please note there is a slight flicker however attepmt was made to fix but source already had the fix so left it be. ****New audio from CPG remasted this took a lot of the brittle harshness out and added sum bass and mids to make it sound great.

thanks and many thanks for UnKn0wN bringing this to our little world.
++Also thanks to CPG for this audio.

Merry Xmas to all....









S C R E E N . S H O T S . . .

















Related Torrents
Type Name Size
Movies Rogue One 2016 BRRip XviD AC3-EVO New!
2 years and 8 months ago
01.55 GB11 0
Movies/x265 Rogue One - A Star Wars Story 2016 BluRay 10Bit 1080p Multi H265-d3g [Freeleech]New!
2 years and 2 months ago
011.22 GB5 0
Movies Rogue One 2016 1080p BRRip X264 AC3-EVO New!
2 years and 8 months ago
04.21 GB4 1
Movies/HD Rogue One 2016 1080p BluRay x264-SPARKS New!
2 years and 8 months ago
09.89 GB3 0
Movies Rogue One A Star Wars Story 2016 HDCAM UnKnOwN New!
2 years and 11 months ago
01.58 GB2 0

<< 1 - 20 | 21 - 40 | 41 - 60 | 61 - 71 >>

Shenzu2055

(Power User)

Thanks for the share

ecos66mia

(Power User)

:t53:

wardy1

(User)

TY  :t59:

wardy1

(User)

ty  :t43:

cerumba

(Power User)

:t113:

bermudez51

(Power User)

tnks a bunch
Thank You

goku187

(Power User)

the best

<< 1 - 20 | 21 - 40 | 41 - 60 | 61 - 71 >>