Modern Problems (1981) 720p DVD x264 - ScubPar - Torrenting.com

Modern Problems (1981) 720p DVD x264 - ScubPar

Category: Movies| Size: 703.16 MB| Added: 2016-12-17 04:09:35

Download
SubscribeBookmark Report

0 0

Modern Problems (1981)

Comedy, Fantasy, Sci-Fi
Ratings: 5.1 / 10
Votes: 4,600 People
Jealous, harried air traffic controller Max Fiedler, recently dumped by his girlfriend, comes into contact with nuclear waste and is granted...
Actors: Chevy Chase, Patti D'Arbanville, Dabney Coleman, Mary Kay Place, Nell Carter, Brian Doyle-Murray, Mitch Kreindel, Arthur Sellers, Sandy Helberg, Neil Thompson, Carl Irwin, Ronald E. House, Buzzy Linhart, Henry Corden, Christine Nazareth


[IMG]hxxp://lookpic.com/O/i2/117/XhHPAoXQ.jpeg[/IMG]

Modern Problems

Plot

Jealous, harried air traffic controller Max Fiedler, recently dumped by his girlfriend, comes into contact with nuclear waste and is granted the power of telekinesis, which he uses not only to win her back, but to gain a little revenge.

http://www.imdb.com/title/tt0082763/?ref_=nv_sr_1

Cast
Chevy Chase ... Max Fielder
Patti D'Arbanville ... Darcy
Dabney Coleman ... Mark Winslow
Mary Kay Place ... Lorraine
Nell Carter ... Dorita
Brian Doyle-Murray ... Brian Stills



[IMG=hxxp://lookpic.com/O/t2/638/lj0cEUgc.jpeg]
[IMG=hxxp://lookpic.com/O/t2/903/E5C48JPE.jpeg]
[IMG=hxxp://lookpic.com/O/t2/453/xRuwoK48.jpeg]
[IMG=hxxp://lookpic.com/O/t2/128/mZUOuPho.jpeg]





Infomation


General
Complete name               : F:\Modern Problems - 1981.mp4
Format                      : MPEG-4
Format profile              : Base Media / Version 2
Codec ID                    : mp42 (isom/iso2/avc1/mp41)
File size                   : 703 MiB
Duration                    : 1 h 32 min
Overall bit rate mode       : Variable
Overall bit rate            : 1 061 kb/s
Movie name                  : Modern Problems
Recorded date               : 1981
Encoded date                : UTC 2016-12-17 02:24:44
Tagged date                 : UTC 2016-12-17 02:24:44
Writing application         : HandBrake 0.10.5 2016021100
Cover                       : Yes
Comment                     : Jealous, harried air traffic controller Max Fiedler, recently dumped by his girlfriend, comes into contact with nuclear waste and is granted the power of telekinesis, which he uses not only to win her back, but to gain a little revenge.

Video
ID                          : 1
Format                      : AVC
Format/Info                 : Advanced Video Codec
Format profile              : Main@L4
Format settings, CABAC      : Yes
Format settings, ReFrames   : 4 frames
Codec ID                    : avc1
Codec ID/Info               : Advanced Video Coding
Duration                    : 1 h 32 min
Bit rate                    : 895 kb/s
Width                       : 1 024 pixels
Height                      : 500 pixels
Display aspect ratio        : 2.048
Original display aspect rat : 2.047
Frame rate mode             : Variable
Frame rate                  : 25.000 FPS
Minimum frame rate          : 15.820 FPS
Maximum frame rate          : 25.000 FPS
Color space                 : YUV
Chroma subsampling          : 4:2:0
Bit depth                   : 8 bits
Scan type                   : Progressive
Bits/(Pixel*Frame)          : 0.070
Stream size                 : 593 MiB (84%)
Writing library             : x264 core 142 r2479 dd79a61
Encoding settings           : cabac=1 / ref=1 / deblock=1:0:0 / analyse=0x1:0x111 / me=hex / subme=2 / psy=1 / psy_rd=1.00:0.00 / mixed_ref=0 / me_range=16 / chroma_me=1 / trellis=0 / 8x8dct=0 / cqm=0 / deadzone=21,11 / fast_pskip=1 / chroma_qp_offset=0 / threads=6 / lookahead_threads=2 / sliced_threads=0 / nr=0 / decimate=1 / interlaced=0 / bluray_compat=0 / constrained_intra=0 / bframes=3 / b_pyramid=2 / b_adapt=1 / b_bias=0 / direct=1 / weightb=1 / open_gop=0 / weightp=1 / keyint=250 / keyint_min=25 / scenecut=40 / intra_refresh=0 / rc_lookahead=10 / rc=crf / mbtree=1 / crf=20.0 / qcomp=0.60 / qpmin=0 / qpmax=69 / qpstep=4 / vbv_maxrate=20000 / vbv_bufsize=25000 / crf_max=0.0 / nal_hrd=none / filler=0 / ip_ratio=1.40 / aq=1:1.00
Encoded date                : UTC 2016-12-17 02:24:44
Tagged date                 : UTC 2016-12-17 02:24:44
Color range                 : Limited
Color primaries             : BT.709
Transfer characteristics    : BT.709
Matrix coefficients         : BT.709

Audio
ID                          : 2
Format                      : AAC
Format/Info                 : Advanced Audio Codec
Format profile              : LC
Codec ID                    : 40
Duration                    : 1 h 32 min
Bit rate mode               : Variable
Bit rate                    : 160 kb/s
Channel(s)                  : 2 channels
Channel positions           : Front: L R
Sampling rate               : 44.1 kHz
Frame rate                  : 43.066 FPS (1024 spf)
Compression mode            : Lossy
Stream size                 : 106 MiB (15%)
Title                       : Stereo / Stereo
Default                     : Yes
Alternate group             : 1
Encoded date                : UTC 2016-12-17 02:24:44
Tagged date                 : UTC 2016-12-17 02:24:44





If you like Christmas Vacation, you'll like this one!  So funny!
Try and find my up's, very rare, so please seed so others can enjoy!  Sick of seeing so many leechers grab and go!  

<< 1 - 6 >>

thank you  :t49:

scotjock1947

(Power User)

thanks  :t24:  :t59:

creepyspooky

(User)

thank you SO much for this!!! :t22:

ScubPar

(Power User)

:t25:

Dalekfan

(Power User)

:t45:  :t92:

PennyFarthing

(Power User)

:t89: Good to see this film. Thanks for the upload!

<< 1 - 6 >>