Airplane II: The Sequel (1982) 1080p DVD x264 - ScubPar - Torrenting.com

Airplane II: The Sequel (1982) 1080p DVD x264 - ScubPar

Category: Movies| Size: 1.61 GB| Added: 2016-12-13 05:02:49

Download
SubscribeBookmark Report

1 0

Airplane II: The Sequel (1982)

Comedy, Sci-Fi
Ratings: 6.2 / 10
Votes: 46,021 People
Airplane II: The Sequel is a movie starring Robert Hays, Julie Hagerty, and Lloyd Bridges. A faulty computer causes a passenger space shuttle to head straight for the Sun. Can Ted Striker save the day and get the shuttle back on...
Actors: Lloyd Bridges, Raymond Burr, Chuck Connors, Rip Torn, John Dehner, Chad Everett, Peter Graves, Julie Hagerty, Robert Hays, Kent McCord, James A. Watson Jr., William Shatner, Stephen Stucker, John Vernon, Al White


[IMG]hxxp://lookpic.com/O/i2/75/h9f5T2BF.jpeg[/IMG]

Airplane II: The Sequel

Plot
A faulty computer causes a passenger space shuttle to head straight for the Sun. Can Ted Striker save the day and get the shuttle back on track - again?

http://www.imdb.com/title/tt0083530/?ref_=tt_rec_tti

Cast

Lloyd Bridges ... Steve McCroskey
Raymond Burr ... The Judge
Chuck Connors ... The Sarge
Rip Torn ... Bud Kruger
John Dehner ... The Commissioner
Chad Everett ... Simon Kurtz
Peter Graves ... Captain Clarence Oveur
Julie Hagerty ... Elaine Dickinson
Robert Hays ... Ted Striker



[IMG=hxxp://lookpic.com/O/t2/1348/IGw63G4M.jpeg]
[IMG=hxxp://lookpic.com/O/t2/608/B37QaLWY.jpeg]
[IMG=hxxp://lookpic.com/O/t2/1444/xH32thkb.jpeg]
[IMG=hxxp://lookpic.com/O/t2/328/VwYYVwT8.jpeg]





Infomation


General
Complete name               : F:\Airplane! - 2 - The Sequel - 1982.mp4
Format                      : MPEG-4
Format profile              : Base Media
Codec ID                    : isom (isom/iso2/avc1/mp41)
File size                   : 1.61 GiB
Duration                    : 1 h 24 min
Overall bit rate            : 2 731 kb/s
Movie name                  : Airplane - 2 - The Sequel
Recorded date               : 1982
Writing application         : Lavf56.40.101
Cover                       : Yes
Comment                     : A faulty computer causes a passenger space shuttle to head straight for the Sun. Can Ted Striker save the day and get the shuttle back on track - again?

Video
ID                          : 1
Format                      : AVC
Format/Info                 : Advanced Video Codec
Format profile              : High@L4.1
Format settings, CABAC      : Yes
Format settings, ReFrames   : 4 frames
Codec ID                    : avc1
Codec ID/Info               : Advanced Video Coding
Duration                    : 1 h 24 min
Bit rate                    : 2 500 kb/s
Width                       : 1 920 pixels
Height                      : 1 080 pixels
Display aspect ratio        : 16:9
Frame rate mode             : Constant
Frame rate                  : 23.976 (23976/1000) FPS
Color space                 : YUV
Chroma subsampling          : 4:2:0
Bit depth                   : 8 bits
Scan type                   : Progressive
Bits/(Pixel*Frame)          : 0.050
Stream size                 : 1.47 GiB (92%)
Writing library             : x264 core 148 r2597M e86f3a1
Encoding settings           : cabac=1 / ref=4 / deblock=1:-1:-1 / analyse=0x3:0x113 / me=umh / subme=9 / psy=1 / psy_rd=1.00:0.15 / mixed_ref=1 / me_range=24 / chroma_me=1 / trellis=2 / 8x8dct=1 / cqm=0 / deadzone=21,11 / fast_pskip=1 / chroma_qp_offset=-3 / threads=32 / lookahead_threads=4 / sliced_threads=0 / nr=0 / decimate=1 / interlaced=0 / bluray_compat=0 / constrained_intra=0 / bframes=3 / b_pyramid=2 / b_adapt=1 / b_bias=0 / direct=1 / weightb=1 / open_gop=0 / weightp=2 / keyint=250 / keyint_min=25 / scenecut=40 / intra_refresh=0 / rc_lookahead=50 / rc=2pass / mbtree=1 / bitrate=2500 / ratetol=1.0 / qcomp=0.60 / qpmin=0 / qpmax=69 / qpstep=4 / cplxblur=20.0 / qblur=0.5 / vbv_maxrate=31250 / vbv_bufsize=31250 / nal_hrd=none / filler=0 / ip_ratio=1.40 / aq=3:1.00
Menus                       : 3

Audio
ID                          : 2
Format                      : AAC
Format/Info                 : Advanced Audio Codec
Format profile              : LC
Codec ID                    : 40
Duration                    : 1 h 24 min
Bit rate mode               : Constant
Bit rate                    : 224 kb/s
Channel(s)                  : 2 channels
Channel positions           : Front: L R
Sampling rate               : 48.0 kHz
Frame rate                  : 46.875 FPS (1024 spf)
Compression mode            : Lossy
Stream size                 : 135 MiB (8%)
Language                    : English
Default                     : Yes
Alternate group             : 1
Menus                       : 3




The 2 movies were are great

<< 1 - 3 >>

ScubPar

(Power User)

Crazy my screen and the trailer are the same lol

BGaun

(Power User)

thanks  :t47:

MrPC

(Power User)

ty

<< 1 - 3 >>