Airplane! (1980) 1080p DVD x264 - ScubPar - Torrenting.com

Airplane! (1980) 1080p DVD x264 - ScubPar

Category: Movies| Size: 1.67 GB| Added: 2016-12-13 04:50:29

Download
SubscribeBookmark Report

2 0

Airplane! (1980)

Ratings: 7.7 / 10
Votes: 192,626 People
Airplane! is a movie starring Robert Hays, Julie Hagerty, and Leslie Nielsen. A man afraid to fly must ensure that a plane lands safely after the pilots become sick.
Actors: Kareem Abdul-Jabbar, Lloyd Bridges, Peter Graves, Julie Hagerty, Robert Hays, Leslie Nielsen, Lorna Patterson, Robert Stack, Stephen Stucker, Otto, Jim Abrahams, Frank Ashmore, Jonathan Banks, Craig Berenson, Barbara Billingsley


[IMG]hxxp://lookpic.com/O/i2/1533/GgiiIW2U.jpeg[/IMG]

Airplane!

Plot

A man afraid to fly must ensure that a plane lands safely after the pilots become sick.

http://www.imdb.com/title/tt0080339/?ref_=nv_sr_1

Cast

Kareem Abdul-Jabbar ... Roger Murdock (as Kareem Abdul-Jabaar)
Lloyd Bridges ... Steve McCroskey
Peter Graves ... Captain Clarence Oveur
Julie Hagerty ... Elaine Dickinson
Robert Hays ... Ted Striker
Leslie Nielsen ... Dr. Rumack



[IMG=hxxp://lookpic.com/O/t2/555/BduoRS03.jpeg]
[IMG=hxxp://lookpic.com/O/t2/1646/VxJk0Pcp.jpeg]
[IMG=hxxp://lookpic.com/O/t2/752/tf2i1pRc.jpeg]
[IMG=hxxp://lookpic.com/O/t2/1572/k4CRCDER.jpeg]





Infomation


General
Complete name               : F:\Airplane! - 1 - 1980.mp4
Format                      : MPEG-4
Format profile              : Base Media
Codec ID                    : isom (isom/iso2/avc1/mp41)
File size                   : 1.67 GiB
Duration                    : 1 h 27 min
Overall bit rate            : 2 729 kb/s
Movie name                  : Airplane
Recorded date               : 1980
Writing application         : Lavf56.40.101
Cover                       : Yes
Comment                     : A man afraid to fly must ensure that a plane lands safely after the pilots become sick.

Video
ID                          : 1
Format                      : AVC
Format/Info                 : Advanced Video Codec
Format profile              : High@L4.1
Format settings, CABAC      : Yes
Format settings, ReFrames   : 4 frames
Codec ID                    : avc1
Codec ID/Info               : Advanced Video Coding
Duration                    : 1 h 27 min
Bit rate                    : 2 500 kb/s
Width                       : 1 920 pixels
Height                      : 1 080 pixels
Display aspect ratio        : 16:9
Frame rate mode             : Constant
Frame rate                  : 23.976 (23976/1000) FPS
Color space                 : YUV
Chroma subsampling          : 4:2:0
Bit depth                   : 8 bits
Scan type                   : Progressive
Bits/(Pixel*Frame)          : 0.050
Stream size                 : 1.53 GiB (92%)
Writing library             : x264 core 148 r2597M e86f3a1
Encoding settings           : cabac=1 / ref=4 / deblock=1:-1:-1 / analyse=0x3:0x113 / me=umh / subme=9 / psy=1 / psy_rd=1.00:0.15 / mixed_ref=1 / me_range=24 / chroma_me=1 / trellis=2 / 8x8dct=1 / cqm=0 / deadzone=21,11 / fast_pskip=1 / chroma_qp_offset=-3 / threads=32 / lookahead_threads=4 / sliced_threads=0 / nr=0 / decimate=1 / interlaced=0 / bluray_compat=0 / constrained_intra=0 / bframes=3 / b_pyramid=2 / b_adapt=1 / b_bias=0 / direct=1 / weightb=1 / open_gop=0 / weightp=2 / keyint=250 / keyint_min=25 / scenecut=40 / intra_refresh=0 / rc_lookahead=50 / rc=2pass / mbtree=1 / bitrate=2500 / ratetol=1.0 / qcomp=0.60 / qpmin=0 / qpmax=69 / qpstep=4 / cplxblur=20.0 / qblur=0.5 / vbv_maxrate=31250 / vbv_bufsize=31250 / nal_hrd=none / filler=0 / ip_ratio=1.40 / aq=3:1.00
Menus                       : 3

Audio
ID                          : 2
Format                      : AAC
Format/Info                 : Advanced Audio Codec
Format profile              : LC
Codec ID                    : 40
Duration                    : 1 h 27 min
Bit rate mode               : Constant
Bit rate                    : 224 kb/s
Channel(s)                  : 2 channels
Channel(s)_Original         : 6 channels
Channel positions           : Front: L C R, Side: L R, LFE
Sampling rate               : 48.0 kHz
Frame rate                  : 46.875 FPS (1024 spf)
Compression mode            : Lossy
Stream size                 : 141 MiB (8%)
Language                    : English
Default                     : Yes
Alternate group             : 1
Menus                       : 3





Classic corny humor

<< 1 - 7 >>

Angelbev21

(Power User)

"Surely, you can't be serious?"
"I am, and don't call me Shirley."
LMAO! Still great!  Thankies!! :t32:  :t56:

chris2k07

(Power User)

thanks

ScubPar

(Power User)

:t13:
Classic! Thanks

MrPC

(Power User)

ty

digitizer

(Power User)

plzzz seeedddd

<< 1 - 7 >>