Fuller House S02E03 WEBRip x264-eSc - Torrenting.com

Fuller House S02E03 WEBRip x264-eSc

Category: TV/SD-x264| Size: 291.86 MB| Added: 2016-12-12 03:21:43

Download
SubscribeBookmark Report

0 0

Fuller House (2016)

Comedy, Family
Ratings: 6.8 / 10
Votes: 22,041 People
In a continuation of Full House (1987), D.J. Fuller is a mother of three young boys and is a recent widow. D.J.s sister Stephanie, her...
Actors: Candace Cameron Bure, Jodie Sweetin, Andrea Barber, Michael Campion, Elias Harger, Soni Bringas, Dashiell Messitt, Fox Messitt, Juan Pablo Di Pace, John Brotherton, Scott Weinger


[IMG]hxxp://lookpic.com/O/i2/173/fdw0lhNA.jpeg[/IMG]

Fuller.House.S02E03.WEBRip.x264-eSc

Plot

In Fuller House, D.J. Tanner-Fuller is a widow and mother of three. Things become too much to handle, so she asks for help from her sister Stephanie and her best-friend Kimmy.

Subtitles: English, Spanish, French, German

http://www.tvmaze.com/shows/3081/fuller-house

Cast

Michael Campion ... Jackson Fuller
Jodie Sweetin ... Stephanie Tanner
Andrea Barber ... Kimmy Gibler
Candace Cameron Bure ... D.J. Tanner-Fuller



[IMG]hxxp://lookpic.com/O/i2/1932/TPlKj8Xd.jpeg[/IMG]

Infomation


Video
ID                                       : 1
Format                                   : AVC
Format/Info                              : Advanced Video Codec
Format profile                           : High@L3.1
Format settings, CABAC                   : Yes
Format settings, ReFrames                : 5 frames
Codec ID                                 : avc1
Codec ID/Info                            : Advanced Video Coding
Duration                                 : 29 min 30 s
Bit rate                                 : 1 253 kb/s
Width                                    : 720 pixels
Height                                   : 406 pixels
Display aspect ratio                     : 16:9
Original display aspect ratio            : 16:9
Frame rate mode                          : Variable
Frame rate                               : 23.976 (23976/1000) FPS
Minimum frame rate                       : 15.859 FPS
Maximum frame rate                       : 23.974 FPS
Color space                              : YUV
Chroma subsampling                       : 4:2:0
Bit depth                                : 8 bits
Scan type                                : Progressive
Bits/(Pixel*Frame)                       : 0.179
Stream size                              : 264 MiB (91%)
Writing library                          : x264 core 142 r2479 dd79a61
Encoding settings                        : cabac=1 / ref=5 / deblock=1:0:0 / analyse=0x3:0x113 / me=umh / subme=8 / psy=1 / psy_rd=1.00:0.00 / mixed_ref=1 / me_range=16 / chroma_me=1 / trellis=1 / 8x8dct=1 / cqm=0 / deadzone=21,11 / fast_pskip=1 / chroma_qp_offset=-2 / threads=12 / lookahead_threads=2 / sliced_threads=0 / nr=0 / decimate=1 / interlaced=0 / bluray_compat=0 / constrained_intra=0 / bframes=3 / b_pyramid=2 / b_adapt=2 / b_bias=0 / direct=3 / weightb=1 / open_gop=0 / weightp=2 / keyint=240 / keyint_min=24 / scenecut=40 / intra_refresh=0 / rc_lookahead=50 / rc=crf / mbtree=1 / crf=18.0 / qcomp=0.60 / qpmin=0 / qpmax=69 / qpstep=4 / vbv_maxrate=17500 / vbv_bufsize=17500 / crf_max=0.0 / nal_hrd=none / filler=0 / ip_ratio=1.40 / aq=1:1.00
Encoded date                             : UTC 2016-12-11 05:23:30
Tagged date                              : UTC 2016-12-11 05:23:36
Color range                              : Limited
Color primaries                          : BT.709
Transfer characteristics                 : BT.709
Matrix coefficients                      : BT.709

Audio
ID                                       : 2
Format                                   : AAC
Format/Info                              : Advanced Audio Codec
Format profile                           : LC
Codec ID                                 : 40
Duration                                 : 29 min 30 s
Duration_FirstFrame                      : 179 ms
Bit rate mode                            : Variable
Bit rate                                 : 124 kb/s
Channel(s)                               : 2 channels
Channel positions                        : Front: L R
Sampling rate                            : 48.0 kHz
Frame rate                               : 46.875 FPS (1024 spf)
Compression mode                         : Lossy
Stream size                              : 26.3 MiB (9%)
Title                                    : Stereo
Encoded date                             : UTC 2016-12-11 05:23:30
Tagged date                              : UTC 2016-12-11 05:23:36



[center][/center]

<< 1 - 1 >>

LikaPoetisa

(User)

Thanks!
:t21:

<< 1 - 1 >>