Adam Ruins Everything S01E23 720p HDTV x264-eSc - Torrenting.com

Adam Ruins Everything S01E23 720p HDTV x264-eSc

Category: TV/x264 HD| Size: 597.38 MB| Added: 2016-12-11 23:48:54

Download
SubscribeBookmark Report

1 0

Adam Ruins Everything (2015)

Animation, Comedy, History, News, Talk-Show
Ratings: 8.1 / 10
Votes: 5,417 People
Iconoclastic Adam Conover from CollegeHumor turns life as we know it on its ear by showing us how unnecessary, and sometimes horrible,...
Actors: Adam Conover, Adam Lustick


[IMG]hxxp://lookpic.com/O/i2/1101/4wiZN7m2.jpeg[/IMG]

Adam.Ruins.Everything.S01E23.720p.HDTV.x264-eSc

Plot

"In Adam Ruins Everything", host Adam Conover employs a combination of comedy, history and science to dispel widespread misconceptions about everything we take for granted. A perfect blend of entertainment and enlightenment, Adam Ruins Everything is inviting, fast-paced and, above all, smart.

http://www.tvmaze.com/shows/3111/adam-ruins-everything

Cast

Adam Conover ... Himself



[IMG]hxxp://lookpic.com/O/i2/1064/pQm2B6yQ.jpeg[/IMG]

Infomation


Video
ID                                       : 1
Format                                   : AVC
Format/Info                              : Advanced Video Codec
Format profile                           : High@L3.1
Format settings, CABAC                   : Yes
Format settings, ReFrames                : 5 frames
Codec ID                                 : avc1
Codec ID/Info                            : Advanced Video Coding
Duration                                 : 24 min 29 s
Bit rate                                 : 3 021 kb/s
Width                                    : 1 280 pixels
Height                                   : 720 pixels
Display aspect ratio                     : 16:9
Frame rate mode                          : Constant
Frame rate                               : 29.970 (30000/1001) FPS
Color space                              : YUV
Chroma subsampling                       : 4:2:0
Bit depth                                : 8 bits
Scan type                                : Progressive
Bits/(Pixel*Frame)                       : 0.109
Stream size                              : 529 MiB (89%)
Writing library                          : x264 core 142 r2479 dd79a61
Encoding settings                        : cabac=1 / ref=5 / deblock=1:0:0 / analyse=0x3:0x113 / me=umh / subme=8 / psy=1 / psy_rd=1.00:0.00 / mixed_ref=1 / me_range=16 / chroma_me=1 / trellis=1 / 8x8dct=1 / cqm=0 / deadzone=21,11 / fast_pskip=1 / chroma_qp_offset=-2 / threads=12 / lookahead_threads=2 / sliced_threads=0 / nr=0 / decimate=1 / interlaced=0 / bluray_compat=0 / constrained_intra=0 / bframes=3 / b_pyramid=2 / b_adapt=2 / b_bias=0 / direct=3 / weightb=1 / open_gop=0 / weightp=2 / keyint=300 / keyint_min=30 / scenecut=40 / intra_refresh=0 / rc_lookahead=50 / rc=crf / mbtree=1 / crf=18.0 / qcomp=0.60 / qpmin=0 / qpmax=69 / qpstep=4 / vbv_maxrate=17500 / vbv_bufsize=17500 / crf_max=0.0 / nal_hrd=none / filler=0 / ip_ratio=1.40 / aq=1:1.00
Encoded date                             : UTC 2016-12-08 05:54:38
Tagged date                              : UTC 2016-12-08 05:54:38
Color range                              : Limited
Color primaries                          : BT.709
Transfer characteristics                 : BT.709
Matrix coefficients                      : BT.709

Audio
ID                                       : 2
Format                                   : AC-3
Format/Info                              : Audio Coding 3
Mode extension                           : CM (complete main)
Format settings, Endianness              : Big
Codec ID                                 : ac-3
Duration                                 : 24 min 29 s
Bit rate mode                            : Constant
Bit rate                                 : 384 kb/s
Channel(s)                               : 2 channels
Channel positions                        : Front: L R
Sampling rate                            : 48.0 kHz
Frame rate                               : 31.250 FPS (1536 spf)
Bit depth                                : 16 bits
Compression mode                         : Lossy
Stream size                              : 67.3 MiB (11%)
Title                                    : Stereo / Stereo
Language                                 : English
Default                                  : Yes
Alternate group                          : 1
Encoded date                             : UTC 2016-12-08 05:54:38
Tagged date                              : UTC 2016-12-08 05:54:38



[center][/center]
Related Torrents
Type Name Size
TV/SD-x264 Adam Ruins Everything S01E23 HDTV x264-eSc New!
2 years and 8 months ago
0212.22 MB0 0

<< 1 - 1 >>

<< 1 - 1 >>