Supermansion S02E00 War On Christmas WEBRip x264-eSc - Torrenting.com

Supermansion S02E00 War On Christmas WEBRip x264-eSc

Category: TV/SD-x264| Size: 185.77 MB| Added: 2016-12-09 03:32:47

Download
SubscribeBookmark Report

1 0

SuperMansion (2015)

Animation, Comedy
Ratings: 7.5 / 10
Votes: 878 People
Aging superhero, Titanium Rex, and his has-been team known as The League of Freedom struggle to stay relevant in a changing world.
Actors: Bryan Cranston, Heidi Gardner, Tucker Gilmore, Zeb Wells, Jillian Bell, Keegan-Michael Key, Chris Pine, Tom Root


[IMG]hxxp://lookpic.com/O/i2/287/txzIUr3q.jpeg[/IMG]

Supermansion.S02E01.War.On.Christmas.WEBRip.x264-eSc

Plot

In SuperMansion a group of elderly superheroes, the League of Freedom, were once renowned throughout the world. Now under the leadership of Titanium Rex, they attempt to stay relevant in a world that has passed them by.

http://www.tvmaze.com/shows/2743/supermansion

Cast

Keegan-Michael Key ... American Ranger
Bryan Cranston ... Titanium Rex
Seth Green ... Various
Jillian Bell ... Various



[IMG]hxxp://lookpic.com/O/i2/895/VZhhWc1Y.jpeg[/IMG]

Infomation


Video
ID                                       : 1
Format                                   : AVC
Format/Info                              : Advanced Video Codec
Format profile                           : High@L3.1
Format settings, CABAC                   : Yes
Format settings, ReFrames                : 5 frames
Codec ID                                 : avc1
Codec ID/Info                            : Advanced Video Coding
Duration                                 : 23 min 26 s
Bit rate                                 : 975 kb/s
Width                                    : 720 pixels
Height                                   : 406 pixels
Display aspect ratio                     : 16:9
Original display aspect ratio            : 16:9
Frame rate mode                          : Constant
Frame rate                               : 29.970 (30000/1001) FPS
Color space                              : YUV
Chroma subsampling                       : 4:2:0
Bit depth                                : 8 bits
Scan type                                : Progressive
Bits/(Pixel*Frame)                       : 0.111
Stream size                              : 163 MiB (88%)
Writing library                          : x264 core 142 r2479 dd79a61
Encoding settings                        : cabac=1 / ref=5 / deblock=1:0:0 / analyse=0x3:0x113 / me=umh / subme=8 / psy=1 / psy_rd=1.00:0.00 / mixed_ref=1 / me_range=16 / chroma_me=1 / trellis=1 / 8x8dct=1 / cqm=0 / deadzone=21,11 / fast_pskip=1 / chroma_qp_offset=-2 / threads=12 / lookahead_threads=2 / sliced_threads=0 / nr=0 / decimate=1 / interlaced=0 / bluray_compat=0 / constrained_intra=0 / bframes=3 / b_pyramid=2 / b_adapt=2 / b_bias=0 / direct=3 / weightb=1 / open_gop=0 / weightp=2 / keyint=300 / keyint_min=30 / scenecut=40 / intra_refresh=0 / rc_lookahead=50 / rc=crf / mbtree=1 / crf=18.0 / qcomp=0.60 / qpmin=0 / qpmax=69 / qpstep=4 / vbv_maxrate=17500 / vbv_bufsize=17500 / crf_max=0.0 / nal_hrd=none / filler=0 / ip_ratio=1.40 / aq=1:1.00
Encoded date                             : UTC 2016-12-08 20:22:03
Tagged date                              : UTC 2016-12-08 20:22:03
Color range                              : Limited
Color primaries                          : BT.709
Transfer characteristics                 : BT.709
Matrix coefficients                      : BT.709

Audio
ID                                       : 2
Format                                   : AC-3
Format/Info                              : Audio Coding 3
Mode extension                           : CM (complete main)
Format settings, Endianness              : Big
Codec ID                                 : ac-3
Duration                                 : 23 min 26 s
Bit rate mode                            : Constant
Bit rate                                 : 128 kb/s
Channel(s)                               : 2 channels
Channel positions                        : Front: L R
Sampling rate                            : 48.0 kHz
Frame rate                               : 31.250 FPS (1536 spf)
Bit depth                                : 16 bits
Compression mode                         : Lossy
Stream size                              : 21.5 MiB (12%)
Title                                    : Stereo / Stereo
Language                                 : English
Default                                  : Yes
Alternate group                          : 1
Encoded date                             : UTC 2016-12-08 20:22:03
Tagged date                              : UTC 2016-12-08 20:22:03



[center][/center]
Related Torrents
Type Name Size
TV/x264 HD SuperMansion S02E10 720p WEB x264-eSc New!
2 years and 3 months ago
0447.56 MB0 0
TV/x264 HD SuperMansion S02E09 720p WEB x264-eSc New!
2 years and 3 months ago
0420.18 MB0 0

<< 1 - 3 >>

thank you  :t55:

owiian

(Power User)

:t5:

<< 1 - 3 >>