The Magnificent Seven 2016 BRRip x264 AAC-SSN - Torrenting.com

The Magnificent Seven 2016 BRRip x264 AAC-SSN

Category: Movies| Size: 1.50 GB| Added: 2016-12-06 11:18:08

Download
SubscribeBookmark Report

0 0

The Magnificent Seven (2016)

Action, Adventure, Western
Ratings: 6.9 / 10
Votes: 170,408 People
Seven gunmen from a variety of backgrounds are brought together by a vengeful young widow to protect her town from the private army of a...
Actors: Denzel Washington, Chris Pratt, Ethan Hawke, Vincent D'Onofrio, Byung-Hun Lee, Manuel Garcia-Rulfo, Martin Sensmeier, Haley Bennett, Peter Sarsgaard, Luke Grimes, Matt Bomer, Jonathan Joss, Cam Gigandet, Emil Beheshti, Mark Ashworth
General
Complete name : The Magnificent Seven 2016 BRRip x264 AAC-SSN.mkv
Format : Matroska
Format version : Version 4 / Version 2
File size : 1.50 GiB
Duration : 2 h 12 min
Overall bit rate : 1 615 kb/s
Encoded date : UTC 2016-12-06 09:50:08
Writing application : mkvmerge v9.4.2 ('So High') 64bit
Writing library : libebml v1.3.4 + libmatroska v1.4.5

Video
ID : 1
Format : AVC
Format/Info : Advanced Video Codec
Format profile : High@L4.1
Format settings, CABAC : Yes
Format settings, ReFrames : 5 frames
Codec ID : V_MPEG4/ISO/AVC
Duration : 2 h 12 min
Bit rate : 1 282 kb/s
Width : 900 pixels
Height : 376 pixels
Display aspect ratio : 2.40:1
Frame rate mode : Constant
Frame rate : 23.976 (24000/1001) FPS
Color space : YUV
Chroma subsampling : 4:2:0
Bit depth : 8 bits
Scan type : Progressive
Bits/(Pixel*Frame) : 0.190
Stream size : 1.19 GiB (79%)
Writing library : x264 core 148 r2744 b97ae06
Encoding settings : cabac=1 / ref=5 / deblock=1:0:0 / analyse=0x3:0x112 / me=dia / subme=1 / psy=0 / mixed_ref=1 / me_range=16 / chroma_me=1 / trellis=0 / 8x8dct=1 / cqm=0 / deadzone=22,11 / fast_pskip=1 / chroma_qp_offset=1 / threads=6 / lookahead_threads=2 / sliced_threads=0 / nr=0 / decimate=1 / interlaced=0 / bluray_compat=0 / constrained_intra=0 / bframes=10 / b_pyramid=2 / b_adapt=2 / b_bias=23 / direct=3 / weightb=1 / open_gop=1 / weightp=2 / keyint=250 / keyint_min=1 / scenecut=40 / intra_refresh=0 / rc_lookahead=100 / rc=2pass / mbtree=1 / bitrate=1282 / ratetol=3.0 / qcomp=0.80 / qpmin=10 / qpmax=40 / qpstep=3 / cplxblur=20.0 / qblur=0.5 / vbv_maxrate=50000 / vbv_bufsize=50000 / nal_hrd=none / filler=0 / ip_ratio=1.30 / aq=1:1.00
Language : English
Default : Yes
Forced : No

Audio
ID : 2
Format : AAC
Format/Info : Advanced Audio Codec
Format profile : LC
Codec ID : A_AAC
Duration : 2 h 12 min
Bit rate : 331 kb/s
Channel(s) : 6 channels
Channel positions : Front: L C R, Side: L R, LFE
Sampling rate : 32.0 kHz
Frame rate : 31.250 FPS (1024 spf)
Compression mode : Lossy
Stream size : 314 MiB (20%)
Language : English
Default : Yes
Forced : No

Related Torrents
Type Name Size
Movies The Magnificent Seven 2016 720p BRRip X264 AC3-EVO New!
2 years and 8 months ago
02.99 GB7 0
Movies The Magnificent Seven 2016 BRRip XviD AC3-EVO New!
2 years and 8 months ago
01.53 GB2 0
Movies The Magnificent Seven (2016) HDCAM XviD UnKnOwN New!
2 years and 11 months ago
02.75 GB1 0
Movies The Magnificent Seven (2016) ReadNFO TS XVID-1Click New!
2 years and 11 months ago
02.04 GB1 0
Movies The Magnificent Seven 2016 BRRip x264 AC3-DR New!
2 years and 8 months ago
01.45 GB1 0

<< 1 - 20 | 21 - 21 >>

kAICHOJ

(Power User)

:t5:

<< 1 - 20 | 21 - 21 >>