The Finder Complete HDTV H264 - Torrenting.com

The Finder Complete HDTV H264

Category: TV/Packs| Size: 2.31 GB| Added: 2016-12-05 12:23:39

Download
Bookmark Report

1 0



[IMG]hxxp://lookpic.com/O/i2/277/tLNSyLJC.jpeg[/IMG]

The.Finder.Complete.HDTV.H264

Plot

An Iraq war vet suffers a brain injury that triggers the ability to see connections between seemingly unrelated events, objects or people.

TV maze:  http://www.tvmaze.com/shows/866/the-finder

Infomation


General
Complete name               : The Finder.S01E01.An Orphan Walks into a Bar.mp4
Format                      : MPEG-4
Format profile              : Apple audio with iTunes info
Codec ID                    : M4A  (isom/avc1/M4A /mp42)
File size                   : 185 MiB
Duration                    : 43 min 19 s
Overall bit rate mode       : Variable
Overall bit rate            : 597 kb/s
Encoded date                : UTC 2012-01-12 07:19:24
Tagged date                 : UTC 2012-01-12 07:19:24

Video
ID                          : 2
Format                      : AVC
Format/Info                 : Advanced Video Codec
Format profile              : High@L4.1
Format settings, CABAC      : Yes
Format settings, ReFrames   : 4 frames
Codec ID                    : avc1
Codec ID/Info               : Advanced Video Coding
Duration                    : 43 min 19 s
Bit rate                    : 528 kb/s
Maximum bit rate            : 1 760 kb/s
Width                       : 704 pixels
Height                      : 400 pixels
Display aspect ratio        : 16:9
Frame rate mode             : Constant
Frame rate                  : 23.976 (24000/1001) FPS
Color space                 : YUV
Chroma subsampling          : 4:2:0
Bit depth                   : 8 bits
Scan type                   : Progressive
Bits/(Pixel*Frame)          : 0.078
Stream size                 : 164 MiB (89%)
Encoded date                : UTC 2012-01-12 07:19:25
Tagged date                 : UTC 2012-01-12 07:19:27

Audio
ID                          : 1
Format                      : AAC
Format/Info                 : Advanced Audio Codec
Format profile              : LC
Codec ID                    : 40
Duration                    : 43 min 19 s
Bit rate mode               : Variable
Bit rate                    : 64.5 kb/s
Maximum bit rate            : 111 kb/s
Channel(s)                  : 2 channels
Channel positions           : Front: L R
Sampling rate               : 48.0 kHz
Frame rate                  : 46.875 FPS (1024 spf)
Compression mode            : Lossy
Stream size                 : 20.0 MiB (11%)
Encoded date                : UTC 2012-01-12 07:19:24
Tagged date                 : UTC 2012-01-12 07:19:27

<< 1 - 8 >>

Boogaloo_Shrimp

(Power User)

Thanks!

cyb3r

(Power User)

no probs archive a lot of tv stuff so going too fill seasons of shows currently on and also aim to fill requests

zeebad

(Power User)

thanks

cyberfolkie

(Power User)

Just saw this today. Thanks so much

Shenzu2055

(Power User)

Thanks  :t62:

Jotunn

(Power User)

4 seeders, 1 seeding, getting a little over Dial-Up speed for a download:

:t78:

DELETED: had to go to other sources

ralphwalsh

(Power User)

Many Thanks
thanks  great program pity it only lasted a year  :t66:

<< 1 - 8 >>