Hamiltons Pharmacopeia S01E05 WEBRip x264-eSc - Torrenting.com

Hamiltons Pharmacopeia S01E05 WEBRip x264-eSc

Category: TV/SD-x264| Size: 359.88 MB| Added: 2016-12-05 04:44:43

Download
SubscribeBookmark Report

0 0

Hamilton's Pharmacopeia (2016)

Ratings: 8.8 / 10
Votes: 530 People
Join an incredible journey through the history, chemistry and societal impacts of the worlds most extraordinary drugs.
Actors: Hamilton Morris


[IMG]hxxp://lookpic.com/O/i2/580/ZVpORrPv.jpeg[/IMG]

Hamiltons.Pharmacopeia.S01E05.WEBRip.x264-eSc

Plot

Hamilton's Pharmacopeia is a curated Tour Through the World of Drugs.

http://www.tvmaze.com/shows/20885/hamiltons-pharmacopeia

Cast

Hamilton Morris ... Host



[IMG]hxxp://lookpic.com/O/i2/767/4IhU68Tz.jpeg[/IMG]

Infomation


Video
ID                                       : 1
Format                                   : AVC
Format/Info                              : Advanced Video Codec
Format profile                           : High@L3
Format settings, CABAC                   : Yes
Format settings, ReFrames                : 4 frames
Codec ID                                 : avc1
Codec ID/Info                            : Advanced Video Coding
Duration                                 : 44 min 4 s
Bit rate                                 : 1 009 kb/s
Width                                    : 720 pixels
Height                                   : 408 pixels
Display aspect ratio                     : 16:9
Original display aspect ratio            : 16:9
Frame rate mode                          : Variable
Frame rate                               : 23.976 (23976/1000) FPS
Minimum frame rate                       : 23.000 FPS
Maximum frame rate                       : 23.981 FPS
Color space                              : YUV
Chroma subsampling                       : 4:2:0
Bit depth                                : 8 bits
Scan type                                : Progressive
Bits/(Pixel*Frame)                       : 0.143
Stream size                              : 318 MiB (88%)
Writing library                          : x264 core 142 r2479 dd79a61
Encoding settings                        : cabac=1 / ref=3 / deblock=1:0:0 / analyse=0x3:0x113 / me=hex / subme=7 / psy=1 / psy_rd=1.00:0.00 / mixed_ref=1 / me_range=16 / chroma_me=1 / trellis=1 / 8x8dct=1 / cqm=0 / deadzone=21,11 / fast_pskip=1 / chroma_qp_offset=-2 / threads=12 / lookahead_threads=2 / sliced_threads=0 / nr=0 / decimate=1 / interlaced=0 / bluray_compat=0 / constrained_intra=0 / bframes=3 / b_pyramid=2 / b_adapt=1 / b_bias=0 / direct=1 / weightb=1 / open_gop=0 / weightp=2 / keyint=240 / keyint_min=24 / scenecut=40 / intra_refresh=0 / rc_lookahead=40 / rc=crf / mbtree=1 / crf=20.0 / qcomp=0.60 / qpmin=0 / qpmax=69 / qpstep=4 / ip_ratio=1.40 / aq=1:1.00
Encoded date                             : UTC 2016-11-29 05:41:59
Tagged date                              : UTC 2016-11-29 05:42:00
Color range                              : Limited
Color primaries                          : BT.709
Transfer characteristics                 : BT.709
Matrix coefficients                      : BT.709

Audio
ID                                       : 2
Format                                   : AAC
Format/Info                              : Advanced Audio Codec
Format profile                           : LC
Codec ID                                 : 40
Duration                                 : 44 min 4 s
Duration_FirstFrame                      : 179 ms
Bit rate mode                            : Variable
Bit rate                                 : 128 kb/s
Channel(s)                               : 2 channels
Channel positions                        : Front: L R
Sampling rate                            : 48.0 kHz
Frame rate                               : 46.875 FPS (1024 spf)
Compression mode                         : Lossy
Stream size                              : 40.5 MiB (11%)
Title                                    : Stereo
Encoded date                             : UTC 2016-11-29 05:41:59
Tagged date                              : UTC 2016-11-29 05:42:00



[center][/center]

<< 1 - 1 >>

Shenzu2055

(Power User)

Thanks

<< 1 - 1 >>