Autopsy The Last Hours Of S05E15 Cory Monteith HDTV x264-eSc - Torrenting.com

Autopsy The Last Hours Of S05E15 Cory Monteith HDTV x264-eSc

Category: TV/SD-x264| Size: 383.63 MB| Added: 2016-12-05 04:42:49

Download
SubscribeBookmark Report

1 0

Autopsy: The Last Hours of (2014)

Documentary, Biography
Ratings: 7.8 / 10
Votes: 395 People
Autopsy: The Last Hours of is a TV series starring Michael Hunter, Richard Shepherd, and Iain Glen. Dr. Richard Shepherd analyses the official autopsy reports of various celebrities to determine their cause of death.
Actors: Michael Hunter


[IMG]hxxp://lookpic.com/O/i2/325/H5wMhSZf.jpeg[/IMG]

Autopsy.The.Last.Hours.Of.S05E15.Cory.Monteith.HDTV.x264-eSc

Plot

Celebrity fact and fiction are forever separated as Autopsy: The Last Hours Of... reveals the truth behind the controversial deaths of some of the most famous celebrities. The sudden and tragic passing of these global mega-stars sent the world into a frenzy fueled by hearsay and rumor. Now crucial medical evidence gained from the actual autopsies explains what killed the stars and reveals how they died, finally putting an end to the speculation.

http://www.tvmaze.com/shows/4959/autopsy-the-last-hours-of

Cast

Dr. Richard Shepherd ... Forensic Pathologist
Anjula Mutanda ... Psychologist
Eric Meyers ... Narrator
Iain Glen ... Narrator



[IMG]hxxp://lookpic.com/O/i2/1359/MwDvZ7Ei.jpeg[/IMG]

Infomation


Video
ID                                       : 1
Format                                   : AVC
Format/Info                              : Advanced Video Codec
Format profile                           : High@L3.1
Format settings, CABAC                   : Yes
Format settings, ReFrames                : 5 frames
Codec ID                                 : avc1
Codec ID/Info                            : Advanced Video Coding
Duration                                 : 44 min 20 s
Bit rate                                 : 1 077 kb/s
Width                                    : 720 pixels
Height                                   : 406 pixels
Display aspect ratio                     : 16:9
Original display aspect ratio            : 16:9
Frame rate mode                          : Constant
Frame rate                               : 29.970 (30000/1001) FPS
Color space                              : YUV
Chroma subsampling                       : 4:2:0
Bit depth                                : 8 bits
Scan type                                : Progressive
Bits/(Pixel*Frame)                       : 0.123
Stream size                              : 341 MiB (89%)
Writing library                          : x264 core 142 r2479 dd79a61
Encoding settings                        : cabac=1 / ref=5 / deblock=1:0:0 / analyse=0x3:0x113 / me=umh / subme=8 / psy=1 / psy_rd=1.00:0.00 / mixed_ref=1 / me_range=16 / chroma_me=1 / trellis=1 / 8x8dct=1 / cqm=0 / deadzone=21,11 / fast_pskip=1 / chroma_qp_offset=-2 / threads=12 / lookahead_threads=2 / sliced_threads=0 / nr=0 / decimate=1 / interlaced=0 / bluray_compat=0 / constrained_intra=0 / bframes=3 / b_pyramid=2 / b_adapt=2 / b_bias=0 / direct=3 / weightb=1 / open_gop=0 / weightp=2 / keyint=300 / keyint_min=30 / scenecut=40 / intra_refresh=0 / rc_lookahead=50 / rc=crf / mbtree=1 / crf=18.0 / qcomp=0.60 / qpmin=0 / qpmax=69 / qpstep=4 / vbv_maxrate=17500 / vbv_bufsize=17500 / crf_max=0.0 / nal_hrd=none / filler=0 / ip_ratio=1.40 / aq=1:1.00
Encoded date                             : UTC 2016-12-04 05:31:19
Tagged date                              : UTC 2016-12-04 05:31:19
Color range                              : Limited
Color primaries                          : BT.709
Transfer characteristics                 : BT.709
Matrix coefficients                      : BT.709

Audio
ID                                       : 2
Format                                   : AC-3
Format/Info                              : Audio Coding 3
Mode extension                           : CM (complete main)
Format settings, Endianness              : Big
Codec ID                                 : ac-3
Duration                                 : 44 min 20 s
Bit rate mode                            : Constant
Bit rate                                 : 128 kb/s
Channel(s)                               : 2 channels
Channel positions                        : Front: L R
Sampling rate                            : 48.0 kHz
Frame rate                               : 31.250 FPS (1536 spf)
Bit depth                                : 16 bits
Compression mode                         : Lossy
Stream size                              : 40.6 MiB (11%)
Title                                    : Stereo / Stereo
Language                                 : English
Default                                  : Yes
Alternate group                          : 1
Encoded date                             : UTC 2016-12-04 05:31:19
Tagged date                              : UTC 2016-12-04 05:31:19



[center][/center]

<< 1 - 3 >>

hellygog

(VIP)

Thanks for your generosity it's very much appreciated:t19::t34::t5:
thank you  :t44:

<< 1 - 3 >>