Planet Earth II (2016) [TV Mini-Series] {2-Disc Edition} Blu-ray 1080i AVC DTS-HD 5 1 - HDCL [NO RAR] - Torrenting.com

Planet Earth II (2016) [TV Mini-Series] {2-Disc Edition} Blu-ray 1080i AVC DTS-HD 5 1 - HDCL [NO RAR]

[FreeLeech]

Category: TV/Packs| Size: 84.13 GB| Added: 2016-12-05 01:48:55

Download
SubscribeBookmark Report

2 0

Planet Earth II: A World of Wonder (2017)

Ratings: 7.5 / 10
Votes: 315 People
Planet Earth II: A World of Wonder is a TV movie starring David Attenborough. A compilation episode of the wildlife documentary series presented by David Attenborough, uncovering the secrets of animals across the globe.
Actors: David Attenborough


[IMG]hxxp://lookpic.com/O/i2/477/KQJQBqCx.jpeg[/IMG]

Planet Earth II (2016) [TV Mini-Series] {2-Disc Edition} Blu-ray 1080i AVC DTS-HD 5 1 - HDCL [NO RAR]

Plot

David Attenborough returns in this breathtaking documentary showcasing life on Planet Earth.

imdb:  http://www.imdb.com/title/tt5491994/

Cast

Actors: Planet Earth II  , David Attenborough


Infomation




DISC INFO:

Disc Title:     PLANET_EARTH_II_D1_HDCL
Disc Size:      45 575 760 708 bytes
Protection:     AACS
BD-Java:        No
Extras:         50Hz Content
BDInfo:         0.5.8

PLAYLIST REPORT:

Name:                   00017.MPLS
Length:                 2:54:54.080 (h:m:s.ms)
Size:                   44 995 178 496 bytes
Total Bitrate:          34,30 Mbps

VIDEO:

Codec                   Bitrate             Description    
-----                   -------             -----------    
MPEG-4 AVC Video        29993 kbps          1080i / 25 fps / 16:9 / High Profile 4.1

AUDIO:

Codec                           Language        Bitrate         Description    
-----                           --------        -------         -----------    
DTS-HD Master Audio             English         2547 kbps       5.1 / 48 kHz / 2547 kbps / 16-bit (DTS Core: 5.1 / 48 kHz / 1509 kbps / 16-bit)

SUBTITLES:

Codec                           Language        Bitrate         Description    
-----                           --------        -------         -----------    
Presentation Graphics           English         30,437 kbps                    

FILES:

Name            Time In         Length          Size            Total Bitrate  
----            -------         ------          ----            -------------  
00002.M2TS      0:00:00.000     0:58:35.040     14 872 971 264  33 850          
00003.M2TS      0:58:35.040     0:58:15.000     15 381 651 456  35 208          
00015.M2TS      1:56:50.040     0:58:04.040     14 740 555 776  33 847


DISC INFO:

Disc Title:     PLANET_EARTH_II_D2_HDCL
Disc Size:      44 759 168 060 bytes
Protection:     AACS
BD-Java:        No
Extras:         50Hz Content
BDInfo:         0.5.8

PLAYLIST REPORT:

Name:                   00017.MPLS
Length:                 2:55:03.119 (h:m:s.ms)
Size:                   44 410 570 752 bytes
Total Bitrate:          33,83 Mbps

VIDEO:

Codec                   Bitrate             Description    
-----                   -------             -----------    
MPEG-4 AVC Video        29987 kbps          1080i / 25 fps / 16:9 / High Profile 4.1

AUDIO:

Codec                           Language        Bitrate         Description    
-----                           --------        -------         -----------    
DTS-HD Master Audio             English         2096 kbps       5.1 / 48 kHz / 2096 kbps / 16-bit (DTS Core: 5.1 / 48 kHz / 1509 kbps / 16-bit)

SUBTITLES:

Codec                           Language        Bitrate         Description    
-----                           --------        -------         -----------    
Presentation Graphics           English         32,661 kbps                    

FILES:

Name            Time In         Length          Size            Total Bitrate  
----            -------         ------          ----            -------------  
00002.M2TS      0:00:00.000     0:58:10.040     14 770 028 544  33 856          
00003.M2TS      0:58:10.040     0:58:14.040     14 797 320 192  33 880          
00015.M2TS      1:56:24.080     0:58:39.040     14 843 222 016  33 744




thanks to original encoder



Related Torrents
Type Name Size
TV/x264 HD Planet Earth II S01E02 720p HDTV x264-BEGUN New!
3 years and 1 month ago
01.33 GB4 0
TV/x264 HD Planet Earth II S01E03 720p HDTV x264-C4TV New!
3 years and 3 weeks ago
01.40 GB3 0
TV/x264 HD Planet Earth II S01E04 720p HDTV x264-C4TV New!
3 years and 2 weeks ago
01.34 GB3 0
TV/x264 HD Planet Earth II S01E01 720p HDTV x264-C4TV New!
3 years and 1 month ago
01.55 GB3 0
TV/Packs Planet Earth II S01 1080p BluRay x265 HEVC DTS-MRN [Freeleech]New!
1 year and 7 months ago
010.00 GB3 0

<< 1 - 20 | 21 - 22 >>

thank you  :t61:

<< 1 - 20 | 21 - 22 >>