Shin Godzilla - Torrenting.com

Shin Godzilla

Category: Movies| Size: 1.08 GB| Added: 2016-12-03 18:18:04

Download
SubscribeBookmark Report

1 0

Shin Gojira (2016)

Action, Adventure, Drama, Horror, Sci-Fi
Ratings: 6.7 / 10
Votes: 19,626 People
Japan is plunged into chaos upon the appearance of a giant monster.
Actors: Hiroki Hasegawa, Yutaka Takenouchi, Satomi Ishihara, Ren Osugi, Akira Emoto, Kengo Kôra, Mikako Ichikawa, Jun Kunimura, Pierre Taki, Kyûsaku Shimada, Ken Mitsuishi, Shingo Tsurumi, Kimiko Yo, Takumi Saitoh, Takashi Fujiki
Shin Godzilla

http://www.imdb.com/title/tt4262980/




General
Complete name                            : Shin Godzilla.mp4
Format                                   : MPEG-4
Format profile                           : Base Media / Version 2
Codec ID                                 : mp42
File size                                : 1.08 GiB
Duration                                 : 1h 40mn
Overall bit rate mode                    : Variable
Overall bit rate                         : 1 541 Kbps
Encoded date                             : UTC 2016-12-02 03:31:13
Tagged date                              : UTC 2016-12-02 03:31:13
gsst                                     : 0
gstd                                     : 6033518

Video
ID                                       : 1
Format                                   : AVC
Format/Info                              : Advanced Video Codec
Format profile                           : High@L3.1
Format settings, CABAC                   : Yes
Format settings, ReFrames                : 1 frame
Format settings, GOP                     : M=1, N=60
Codec ID                                 : avc1
Codec ID/Info                            : Advanced Video Coding
Duration                                 : 1h 40mn
Bit rate                                 : 1 347 Kbps
Maximum bit rate                         : 12.3 Mbps
Width                                    : 1 280 pixels
Height                                   : 720 pixels
Display aspect ratio                     : 16:9
Frame rate mode                          : Constant
Frame rate                               : 29.970 fps
Color space                              : YUV
Chroma subsampling                       : 4:2:0
Bit depth                                : 8 bits
Scan type                                : Progressive
Bits/(Pixel*Frame)                       : 0.049
Stream size                              : 969 MiB (87%)
Encoded date                             : UTC 1904-01-01 00:00:00
Tagged date                              : UTC 2016-12-02 03:35:42
Color range                              : Limited
Color primaries                          : BT.709
Transfer characteristics                 : BT.709
Matrix coefficients                      : BT.709

Audio
ID                                       : 2
Format                                   : AAC
Format/Info                              : Advanced Audio Codec
Format profile                           : LC
Codec ID                                 : 40
Duration                                 : 1h 40mn
Bit rate mode                            : Variable
Bit rate                                 : 192 Kbps
Maximum bit rate                         : 202 Kbps
Channel(s)                               : 2 channels
Channel positions                        : Front: L R
Sampling rate                            : 44.1 KHz
Compression mode                         : Lossy
Stream size                              : 138 MiB (12%)
Title                                    : IsoMedia File Produced by Google, 5-11-2011
Language                                 : English
Encoded date                             : UTC 2016-12-02 03:33:31
Tagged date                              : UTC 2016-12-02 03:35:42



Related Torrents
Type Name Size
Movies/HD Shin Godzilla 2016 1080p BluRay x264-BRMP New!
2 years and 4 months ago
08.83 GB2 0

<< 1 - 15 >>

Shewolf

(Power User)

:t70: Must for longtime ToHo Studios Godzilla fans!!!

gonebald

(Power User)

Japanese with English subtitles, good quality, cheesy movie

ackopj

(Power User)

tar

AlfieMD

(Power User)

A=10 V=10, Thanks

Ynse

(Power User)

Thank you been waiting for ages

goober

(Power User)

thank you

guyana234

(Power User)

ty
excellent quality, ok movie, if you like these types of sci-fi things
cool movie !!   :t45:
cool thank you!  :t64:

Malvonicus

(Power User)

is this the complete version or does it have random jump cuts as well?

Malvonicus

(Power User)

according to IMDB shin gojira is 2 hours and this version is 1 hour 40 minutes.. that means there is 20 minutes missing?

phyrago

(User)

Great

<< 1 - 15 >>