Hellraiser 9 Pack BluRay 1080p HEVC-D3FiL3R - Torrenting.com

Hellraiser 9 Pack BluRay 1080p HEVC-D3FiL3R

[FreeLeech]

Category: Movies/Packs| Size: 33.20 GB| Added: 2016-12-01 23:06:17

Download
Bookmark Report

1 0



[IMG]hxxp://lookpic.com/O/i2/1450/Au7bCRbj.jpeg[/IMG]

Hellraiser 9 Pack BluRay 1080p HEVC-D3FiL3R

Titles:

Hellraiser (1987) - BluRay Disc
Hellbound: Hellraiser II (1988) - BluRay Disc
Hellraiser III: Hell on Earth (1992) - BluRay Disc
Hellraiser: Bloodline (1996) - BluRay Disc
Hellraiser: Inferno (2000) - BluRay Disc
Hellraiser: Hellseeker (2002) - BluRay Disc
Hellraiser: Deader (2005) - Retail DVD
Hellraiser: Hellworld (2005) - BluRay Disc
Hellraiser: Revelations (2011) - BluRay Disc


IMDb: http://www.imdb.com/list/ls000699212/



[IMG]hxxp://lookpic.com/O/i2/1326/HuNnRr3C.png[/IMG]
======================
[IMG]hxxp://lookpic.com/O/i2/1909/uKrg5qLr.png[/IMG]
======================
[IMG]hxxp://lookpic.com/O/i2/1082/yD7uRcNk.png[/IMG]
======================
[IMG]hxxp://lookpic.com/O/i2/703/A9P5SYgz.png[/IMG]
======================
[IMG]hxxp://lookpic.com/O/i2/771/lGPbJMsD.png[/IMG]
======================
[IMG]hxxp://lookpic.com/O/i2/1654/pBud5oQY.png[/IMG]
======================
[IMG]hxxp://lookpic.com/O/i2/1536/QN3myTVJ.png[/IMG]
======================
[IMG]hxxp://lookpic.com/O/i2/1103/WisJtRbm.png[/IMG]
======================
[IMG]hxxp://lookpic.com/O/i2/725/2OXZCNYc.png[/IMG]
======================
[IMG]hxxp://lookpic.com/O/i2/582/WZHNjN7m.png[/IMG]
======================
[IMG]hxxp://lookpic.com/O/i2/1182/eBAWiau5.png[/IMG]
======================
[IMG]hxxp://lookpic.com/O/i2/332/uwOelFId.png[/IMG]
======================
[IMG]hxxp://lookpic.com/O/i2/525/tbcMGPXG.png[/IMG]
======================
[IMG]hxxp://lookpic.com/O/i2/268/0WTuoxmU.png[/IMG]
======================
[IMG]hxxp://lookpic.com/O/i2/1862/aajyw1N6.png[/IMG]
======================
[IMG]hxxp://lookpic.com/O/i2/1947/vEiz5WFq.png[/IMG]
======================
[IMG]hxxp://lookpic.com/O/i2/1415/wyU3LNmr.png[/IMG]
======================
[IMG]hxxp://lookpic.com/O/i2/1090/nNFs5KYw.png[/IMG]
======================



[video=...utubeurl...]

Infomation


Per Title:

Format : Matroska
Format version : Version 2
File size : 2.30 GiB
Duration : 1 h 15 min
Overall bit rate : 4 391 kb/s
Encoded date : UTC 2016-11-27 23:47:07
Writing application : DVDFab 9.3.2.1
Writing library : libebml v0.7.8 + libmatroska v0.8.1

Video
ID : 1
Format : HEVC
Format/Info : High Efficiency Video Coding
Format profile : Main@L5@High
Codec ID : V_MPEGH/ISO/HEVC
Duration : 1 h 15 min
Bit rate : 3 856 kb/s
Width : 1 920 pixels
Height : 1 080 pixels
Display aspect ratio : 16:9
Frame rate mode : Constant
Frame rate : 23.976 (24000/1001) FPS
Color space : YUV
Chroma subsampling : 4:2:0
Bit depth : 8 bits
Bits/(Pixel*Frame) : 0.078
Stream size : 2.02 GiB (88%)
Default : Yes
Forced : No

Audio
ID : 2
Format : AC-3
Format/Info : Audio Coding 3
Mode extension : CM (complete main)
Format settings, Endianness : Big
Codec ID : A_AC3
Duration : 1 h 15 min
Bit rate mode : Constant
Bit rate : 448 kb/s
Channel(s) : 6 channels
Channel positions : Front: L C R, Side: L R, LFE
Sampling rate : 48.0 kHz
Frame rate : 31.250 FPS (1536 spf)
Bit depth : 16 bits
Compression mode : Lossy
Stream size : 241 MiB (10%)
Language : English
Default : Yes
Forced : No





Source: BluRay Retail Disc's except for "Deader" which we ripped MKV Passthrough to produce a DVD REMUX.
Looked high and low for Deader BluRay and could not find one.

Enjoy!  



Bassjunkie



My Torrenting Sensei!!! Thanks so much.


[IMG]hxxp://lookpic.com/O/i2/495/nurxyqjn.jpeg[/IMG]


<< 1 - 20 >>

stich_it

(Power User)

TY

PaPa-J

(Power User)

Thanks M8

aharlib

(Power User)

THANK YOU!
thank you

tb21666

(Power User)

For those of you with limited/restricted bandwidth, these are NOT the Unrated/Director's Cut versions

Rdgrnnr

(Power User)

tb21666, why would you say that in your comment?
No where in his upload does it say or infer that it is the versions you mention

PiR8

(Moderator)

Thanks RR.  Just can't please all the folks getting free stuff.  At least he has the right t-shirt.  lol
:t8: Oh wow this is awesome!! Thank you!!

SmilinWolf

(Power User)

Thanks! :t5:

bigeatzz

(Power User)

:t109:

daf52

(Power User)

:t8:  :t8:  :t8:  :t8:  :t8:

scotjock1947

(Power User)

thanks  :t62:  :t67:  :t64:

BGaun

(Power User)

thanks  :t22:
great movies tnx alot

The-Ice-Phoenix

(Power User)

:t58:
cheers

thnx heaps

martysmart

(Power User)

thank you

<< 1 - 20 >>