Brazzers TOP Most Viewed Scenes of 2016 NEW XXX PACK WEB-DL - Torrenting.com

Brazzers TOP Most Viewed Scenes of 2016 NEW XXX PACK WEB-DL

[FreeLeech]

Category: XXX| Size: 78.36 GB| Added: 2016-11-29 13:29:02

Download
Bookmark Report

10 0



[IMG]hxxp://lookpic.com/O/i2/992/OzAsDCGc.jpeg[/IMG]

Brazzers TOP Most Viewed Scenes of 2016 NEW XXX PACK WEB-DL


[IMG]hxxp://lookpic.com/O/i2/971/piSEa4Ng.jpeg[/IMG]
[IMG]hxxp://lookpic.com/O/i2/1753/dwEWIQKx.jpeg[/IMG]
[IMG]hxxp://lookpic.com/O/i2/1805/61suS86V.jpeg[/IMG]
[IMG]hxxp://lookpic.com/O/i2/1859/nYoKOdl4.jpeg[/IMG]

Infomation

Video
ID                          : 1
Format                      : AVC
Format/Info                 : Advanced Video Codec
Format profile              : High@L3
Format settings, CABAC      : Yes
Format settings, ReFrames   : 5 frames
Codec ID                    : avc1
Codec ID/Info               : Advanced Video Coding
Duration                    : 44 min 27 s
Bit rate                    : 1 000 kb/s
Width                       : 854 pixels
Height                      : 480 pixels
Display aspect ratio        : 16:9
Frame rate mode             : Constant
Frame rate                  : 23.976 (23976/1000) FPS
Color space                 : YUV
Chroma subsampling          : 4:2:0
Bit depth                   : 8 bits
Scan type                   : Progressive
Bits/(Pixel*Frame)          : 0.102
Stream size                 : 316 MiB (84%)


Audio
ID                          : 2
Format                      : AAC
Format/Info                 : Advanced Audio Codec
Format profile              : LC
Codec ID                    : 40
Duration                    : 44 min 43 s
Duration_LastFrame          : 15 s 564 ms
Bit rate mode               : Constant
Bit rate                    : 127 kb/s
Channel(s)                  : 2 channels
Channel positions           : Front: L R
Sampling rate               : 48.0 kHz
Frame rate                  : 46.875 FPS (1024 spf)
Compression mode            : Lossy
Stream size                 : 40.7 MiB (11%)


[center][/center]

<< 1 - 20 | 21 - 31 >>

BGaun

(Power User)

ty
good collection thanks :t55:
:t89:  :t32: thanks

yamadawg

(Power User)

:t80:

jcc0312

(User)

thx

fearless12345

(User)

:t40:
Thanks .

<< 1 - 20 | 21 - 31 >>