Must See Christmas Movies Mixed Rip Types (Pack V2) x264 - MaryJane - Torrenting.com

Must See Christmas Movies Mixed Rip Types (Pack V2) x264 - MaryJane

[FreeLeech]

Category: Movies/Packs| Size: 44.82 GB| Added: 2016-11-28 19:18:42

Download
SubscribeBookmark Report

0 1

A Christmas Carol (2009)

Animation, Drama, Family, Fantasy
Ratings: 6.8 / 10
Votes: 93,684 People
An animated retelling of Charles Dickens classic novel about a Victorian-era miser taken on a journey of self-redemption, courtesy of several...
Actors: Jim Carrey, Steve Valentine, Daryl Sabara, Sage Ryan, Amber Gainey Meade, Ryan Ochoa, Bobbi Page, Ron Bottitta, Sammi Hanratty, Julian Holloway, Gary Oldman, Colin Firth, Cary Elwes, Robin Wright, Bob Hoskins




Must See Christmas Movies Mixed Rip Types (Pack V2) - MaryJane




A Christmas Carol (2009) 1080p BRRip x264 AC3 5.1 - MaryJane

Plot

A Christmas Carol (2009)
96 min  -  Animation | Comedy | Drama  -  6 November 2009 (USA)
IMDB Rating 6.7

An animated retelling of Charles Dickens' classic novel about a Victorian-era miser taken on a journey of self-redemption, courtesy of several mysterious Christmas apparitions.

Director: Robert Zemeckis
Writers: Charles Dickens (novel), Robert Zemeckis (screenplay)

Cast

Jim Carrey ... Scrooge
Ghost of Christmas Past
Scrooge as a Young Boy
Scrooge as a Teenage Boy
Scrooge as a Young Man
Scrooge as a Middle-Aged Man
Ghost of Christmas Present
Ghost of Christmas Yet to Come

Gary Oldman ... Bob Cratchit
Marley
Tiny Tim

Colin Firth ... Fred

Bob Hoskins ... Fezziwig
Old Joe







Infomation


General
Complete name                            : A Christmas Carol (2009) 1080p BRRip x264 AC3 5.1 - MaryJane.mp4
Format                                   : MPEG-4
Format profile                           : Base Media
Codec ID                                 : isom
File size                                : 3.00 GiB
Duration                                 : 1h 35mn
Overall bit rate                         : 4 485 Kbps
Writing application                      : Lavf53.18.0

Video
ID                                       : 1
Format                                   : AVC
Format/Info                              : Advanced Video Codec
Format profile                           : High@L4.0
Format settings, CABAC                   : Yes
Format settings, ReFrames                : 4 frames
Codec ID                                 : avc1
Codec ID/Info                            : Advanced Video Coding
Duration                                 : 1h 35mn
Bit rate                                 : 3 843 Kbps
Width                                    : 1 920 pixels
Height                                   : 806 pixels
Display aspect ratio                     : 2.40:1
Frame rate mode                          : Constant
Frame rate                               : 23.976 fps
Color space                              : YUV
Chroma subsampling                       : 4:2:0
Bit depth                                : 8 bits
Scan type                                : Progressive
Bits/(Pixel*Frame)                       : 0.104
Stream size                              : 2.57 GiB (86%)
Writing library                          : x264 core 119
Language                                 : English

Audio
ID                                       : 2
Format                                   : AC-3
Format/Info                              : Audio Coding 3
Mode extension                           : CM (complete main)
Format settings, Endianness              : Big
Codec ID                                 : ac-3
Duration                                 : 1h 35mn
Bit rate mode                            : Constant
Bit rate                                 : 640 Kbps
Channel count                            : 6 channels
Channel positions                        : Front: L C R, Side: L R, LFE
Sampling rate                            : 48.0 KHz
Bit depth                                : 16 bits
Compression mode                         : Lossy
Delay relative to video                  : 83ms
Stream size                              : 439 MiB (14%)
Language                                 : English


http://www.imdb.com/title/tt1067106/





Elf (2003) BDRip 1080p x264 AC3 5.1 - MaryJane

Plot

Elf (2003)
97 min  -  Comedy | Family | Fantasy  -   28 November 2003 (UK)
IMDB Rating 6.8

After inadvertently wreaking havoc on the elf community due to his ungainly size, a man raised as an elf at the North Pole is sent to the U.S. in search of his true identity.

Director : Jon Favreau
Writer : David Berenbaum

Cast

Will Ferrell ... Buddy
James Caan ... Walter
Bob Newhart ... Papa Elf
Edward Asner ... Santa
Mary Steenburgen ... Emily
Zooey Deschanel ... Jovie
Daniel Tay ... Michael
Faizon Love ... Gimbel's Manager
Peter Dinklage ... Miles Finch
Amy Sedaris ... Deb
Michael Lerner ... Fulton
Andy Richter ... Morris
Kyle Gass ... Eugene
Artie Lange ... Gimbel's Santa
Leon Redbone ... Leon the Snowman (voice)
Ray Harryhausen ... Polar Bear Cub (voice)
Claire Lautier ... NY 1 Reporter
Ted Friend ... NY 1 Anchor
Patrick Ferrell ... Security Guard







Infomation


General
Complete name                            : Elf (2003) BDRip 1080p x264 AC3 5.1 - MaryJane.mp4
Format                                   : MPEG-4
Format profile                           : Base Media
Codec ID                                 : isom
File size                                : 5.07 GiB
Duration                                 : 1h 36mn
Overall bit rate                         : 7 498 Kbps
Encoded date                             : UTC 1970-01-01 00:00:00
Tagged date                              : UTC 1970-01-01 00:00:00
Writing application                      : Lavf53.18.0

Video
ID                                       : 1
Format                                   : AVC
Format/Info                              : Advanced Video Codec
Format profile                           : High@L4.0
Format settings, CABAC                   : Yes
Format settings, ReFrames                : 4 frames
Codec ID                                 : avc1
Codec ID/Info                            : Advanced Video Coding
Duration                                 : 1h 36mn
Bit rate                                 : 7 000 Kbps
Width                                    : 1 920 pixels
Height                                   : 1 080 pixels
Display aspect ratio                     : 16:9
Frame rate mode                          : Constant
Frame rate                               : 23.976 fps
Color space                              : YUV
Chroma subsampling                       : 4:2:0
Bit depth                                : 8 bits
Scan type                                : Progressive
Bits/(Pixel*Frame)                       : 0.141
Stream size                              : 4.63 GiB (91%)
Writing library                          : x264 core 119
Language                                 : English
Encoded date                             : UTC 1970-01-01 00:00:00
Tagged date                              : UTC 1970-01-01 00:00:00

Audio
ID                                       : 2
Format                                   : AC-3
Format/Info                              : Audio Coding 3
Mode extension                           : CM (complete main)
Format settings, Endianness              : Big
Codec ID                                 : ac-3
Duration                                 : 1h 36mn
Bit rate mode                            : Constant
Bit rate                                 : 640 Kbps
Channel(s)                               : 6 channels
Channel positions                        : Front: L C R, Side: L R, LFE
Sampling rate                            : 48.0 KHz
Bit depth                                : 16 bits
Compression mode                         : Lossy
Stream size                              : 443 MiB (9%)
Language                                 : English
Encoded date                             : UTC 1970-01-01 00:00:00
Tagged date                              : UTC 1970-01-01 00:00:00



http://uk.imdb.com/title/tt0319343/




It's A Wonderful Life (1946) B&W BRRip 1080p x264 AC3  - MaryJane

Plot

It's a Wonderful Life (1946)
130 min  -  Drama | Family | Fantasy  -  7 January 1947 (USA)
IMDB Rating 8.7

An angel helps a compassionate but despairingly frustrated businessman by showing what life would have been like if he never existed.

Director: Frank Capra
Writers: Frances Goodrich (screenplay), Albert Hackett (screenplay)

Cast

James Stewart ... George Bailey
Donna Reed ... Mary Hatch
Lionel Barrymore ... Henry F. Potter
Thomas Mitchell ... Uncle Billy Bailey
Henry Travers ... Clarence
Beulah Bondi ... Ma Bailey
Frank Faylen ... Ernie Bishop
Ward Bond ... Bert
Gloria Grahame ... Violet Bick
H.B. Warner ... Mr. Gower
Todd Karns ... Harry Bailey







Infomation


General
Complete name                            : It's A Wonderful Life (1946) BRRip 1080p x264 AC3  - MaryJane.mp4
Format                                   : MPEG-4
Format profile                           : Base Media
Codec ID                                 : isom
File size                                : 8.43 GiB
Duration                                 : 2h 10mn
Overall bit rate                         : 9 242 Kbps
Encoded date                             : UTC 1970-01-01 00:00:00
Tagged date                              : UTC 1970-01-01 00:00:00
Writing application                      : Lavf53.18.0

Video
ID                                       : 1
Format                                   : AVC
Format/Info                              : Advanced Video Codec
Format profile                           : High@L4.0
Format settings, CABAC                   : Yes
Format settings, ReFrames                : 4 frames
Codec ID                                 : avc1
Codec ID/Info                            : Advanced Video Coding
Duration                                 : 2h 10mn
Bit rate                                 : 9 000 Kbps
Width                                    : 1 452 pixels
Height                                   : 1 080 pixels
Display aspect ratio                     : 4:3
Frame rate mode                          : Constant
Frame rate                               : 23.976 fps
Color space                              : YUV
Chroma subsampling                       : 4:2:0
Bit depth                                : 8 bits
Scan type                                : Progressive
Bits/(Pixel*Frame)                       : 0.239
Stream size                              : 8.22 GiB (98%)
Writing library                          : x264 core 119
Language                                 : English
Encoded date                             : UTC 1970-01-01 00:00:00
Tagged date                              : UTC 1970-01-01 00:00:00

Audio
ID                                       : 2
Format                                   : AC-3
Format/Info                              : Audio Coding 3
Mode extension                           : CM (complete main)
Format settings, Endianness              : Big
Codec ID                                 : ac-3
Duration                                 : 2h 10mn
Bit rate mode                            : Constant
Bit rate                                 : 224 Kbps
Channel(s)                               : 2 channels
Channel positions                        : Front: L R
Sampling rate                            : 48.0 KHz
Bit depth                                : 16 bits
Compression mode                         : Lossy
Stream size                              : 209 MiB (2%)
Language                                 : English
Encoded date                             : UTC 1970-01-01 00:00:00
Tagged date                              : UTC 1970-01-01 00:00:00


http://www.imdb.com/title/tt0038650/?ref_=fn_al_tt_1




Its A Wonderful Life 1946 Colorized Version 1080p BRRip x264 - MaryJane







Infomation


General
Complete name                            : Its A Wonderful Life (1946) Colorized Version 1080p BRRip  x264 - MaryJane.mp4
Format                                   : MPEG-4
Format profile                           : Base Media
Codec ID                                 : isom
File size                                : 8.43 GiB
Duration                                 : 2h 10mn
Overall bit rate                         : 9 246 Kbps
Encoded date                             : UTC 1970-01-01 00:00:00
Tagged date                              : UTC 1970-01-01 00:00:00
Writing application                      : Lavf53.18.0

Video
ID                                       : 1
Format                                   : AVC
Format/Info                              : Advanced Video Codec
Format profile                           : High@L4.0
Format settings, CABAC                   : Yes
Format settings, ReFrames                : 4 frames
Codec ID                                 : avc1
Codec ID/Info                            : Advanced Video Coding
Duration                                 : 2h 10mn
Bit rate                                 : 9 000 Kbps
Width                                    : 1 442 pixels
Height                                   : 1 080 pixels
Display aspect ratio                     : 4:3
Frame rate mode                          : Constant
Frame rate                               : 23.976 fps
Color space                              : YUV
Chroma subsampling                       : 4:2:0
Bit depth                                : 8 bits
Scan type                                : Progressive
Bits/(Pixel*Frame)                       : 0.241
Stream size                              : 8.22 GiB (98%)
Writing library                          : x264 core 119
Language                                 : English
Encoded date                             : UTC 1970-01-01 00:00:00
Tagged date                              : UTC 1970-01-01 00:00:00

Audio
ID                                       : 2
Format                                   : AC-3
Format/Info                              : Audio Coding 3
Mode extension                           : CM (complete main)
Format settings, Endianness              : Big
Codec ID                                 : ac-3
Duration                                 : 2h 10mn
Bit rate mode                            : Constant
Bit rate                                 : 224 Kbps
Channel(s)                               : 2 channels
Channel positions                        : Front: L R
Sampling rate                            : 48.0 KHz
Bit depth                                : 16 bits
Compression mode                         : Lossy
Stream size                              : 209 MiB (2%)
Language                                 : French
Encoded date                             : UTC 1970-01-01 00:00:00
Tagged date                              : UTC 1970-01-01 00:00:00


http://www.imdb.com/title/tt0038650/?ref_=fn_al_tt_1




Miracle On 34th Street (1994) 720p BRRip x264 AC3 5.1- MaryJane

Plot

Miracle on 34th Street (1994)
114 min  -  Drama | Fantasy  -  18 November 1994 (USA)
IMDB Rating 6.1

A little girl discovers dreams do come true if you really believe. Six-year-old Susan has doubts about childhood's most enduring miracle - Santa Claus. Her mother told her the "secret" about Santa a long time ago, so Susan doesn't expect to receive the most important gifts on her Christmas list. But after meeting a special department store Santa who's convinced he's the real thing, Susan is given the most precious gift of all - something to believe in

Director: Les Mayfield
Writers: Valentine Davies (story), George Seaton

Cast

Richard Attenborough ... Kris Kringle
Elizabeth Perkins ... Dorey Walker
Dylan McDermott ... Bryan Bedford
J.T. Walsh ... Ed Collins
James Remar ... Jack Duff
Jane Leeves ... Alberta Leonard
Simon Jones ... Donald Shellhammer
William Windom ... C.F. Cole
Mara Wilson ... Susan Walker
Robert Prosky ... Judge Henry Harper
Kathrine Narducci ... Mother
Mary McCormack ... Myrna Foy







Infomation


General
Complete name                            : Miracle On 34th Street (1994) 720p BRRip x264 AC3 5.1- MaryJane.mp4
Format                                   : MPEG-4
Format profile                           : Base Media
Codec ID                                 : isom
File size                                : 2.60 GiB
Duration                                 : 1h 54mn
Overall bit rate                         : 3 261 Kbps
Writing application                      : Lavf53.18.0

Video
ID                                       : 1
Format                                   : AVC
Format/Info                              : Advanced Video Codec
Format profile                           : Main@L3.1
Format settings, CABAC                   : Yes
Format settings, ReFrames                : 4 frames
Codec ID                                 : avc1
Codec ID/Info                            : Advanced Video Coding
Duration                                 : 1h 54mn
Bit rate                                 : 2 800 Kbps
Width                                    : 1 280 pixels
Height                                   : 696 pixels
Display aspect ratio                     : 1.85:1
Frame rate mode                          : Constant
Frame rate                               : 23.976 fps
Color space                              : YUV
Chroma subsampling                       : 4:2:0
Bit depth                                : 8 bits
Scan type                                : Progressive
Bits/(Pixel*Frame)                       : 0.131
Stream size                              : 2.24 GiB (86%)
Writing library                          : x264 core 119

Audio
ID                                       : 2
Format                                   : AC-3
Format/Info                              : Audio Coding 3
Mode extension                           : CM (complete main)
Format settings, Endianness              : Big
Codec ID                                 : ac-3
Duration                                 : 1h 54mn
Bit rate mode                            : Constant
Bit rate                                 : 448 Kbps
Channel count                            : 6 channels
Channel positions                        : Front: L C R, Side: L R, LFE
Sampling rate                            : 48.0 KHz
Bit depth                                : 16 bits
Compression mode                         : Lossy
Delay relative to video                  : 83ms
Stream size                              : 365 MiB (14%)


http://www.imdb.com/title/tt0110527/?ref_=fn_al_tt_1




Miracle on 34th Street (1947) Colourized Version DVDRip x264 AC3 - MaryJane

Plot

Miracle on 34th Street (1947)
96 min  -  Comedy | Drama | Family  -  2 May 1947 (USA)
IMDB Rating 7.8

When a nice old man who claims to be Santa Claus is institutionalized as insane, a young lawyer decides to defend him by arguing in court that he is the real thing.

Director: George Seaton
Writers: George Seaton (written for the screen by), Valentine Davies (story)

Cast

Maureen O'Hara ... Doris Walker
John Payne ... Fred Gailey
Edmund Gwenn ... Kris Kringle
Gene Lockhart ... Judge Henry X. Harper
Natalie Wood ... Susan Walker
Porter Hall ... Granville Sawyer
William Frawley ... Charlie Halloran
Jerome Cowan ... Dist. Atty. Thomas Mara
Philip Tonge ... Julian Shellhammer







Infomation


General
Complete name                            : Miracle on 34th Street (1947) Colourized Version DVDRip x264 - MaryJane.mp4
Format                                   : MPEG-4
Format profile                           : Base Media
Codec ID                                 : isom
File size                                : 1.65 GiB
Duration                                 : 1h 36mn
Overall bit rate                         : 2 451 Kbps
Encoded date                             : UTC 1970-01-01 00:00:00
Tagged date                              : UTC 1970-01-01 00:00:00
Writing application                      : Lavf53.18.0

Video
ID                                       : 1
Format                                   : AVC
Format/Info                              : Advanced Video Codec
Format profile                           : Baseline@L3.0
Format settings, CABAC                   : No
Format settings, ReFrames                : 1 frame
Codec ID                                 : avc1
Codec ID/Info                            : Advanced Video Coding
Duration                                 : 1h 36mn
Bit rate                                 : 2 000 Kbps
Width                                    : 720 pixels
Height                                   : 480 pixels
Display aspect ratio                     : 3:2
Frame rate mode                          : Constant
Frame rate                               : 23.976 fps
Standard                                 : NTSC
Color space                              : YUV
Chroma subsampling                       : 4:2:0
Bit depth                                : 8 bits
Scan type                                : Progressive
Bits/(Pixel*Frame)                       : 0.241
Stream size                              : 1.35 GiB (82%)
Writing library                          : x264 core 119
Language                                 : English
Encoded date                             : UTC 1970-01-01 00:00:00
Tagged date                              : UTC 1970-01-01 00:00:00

Audio
ID                                       : 2
Format                                   : AC-3
Format/Info                              : Audio Coding 3
Mode extension                           : CM (complete main)
Format settings, Endianness              : Big
Codec ID                                 : ac-3
Duration                                 : 1h 36mn
Bit rate mode                            : Constant
Bit rate                                 : 448 Kbps
Channel(s)                               : 2 channels
Channel positions                        : Front: L R
Sampling rate                            : 48.0 KHz
Bit depth                                : 16 bits
Compression mode                         : Lossy
Stream size                              : 309 MiB (18%)
Language                                 : English
Encoded date                             : UTC 1970-01-01 00:00:00
Tagged date                              : UTC 1970-01-01 00:00:00


http://www.imdb.com/title/tt0039628/?ref_=fn_al_tt_2




Miracle On 34th Street 1947 BRRip 720p x264 AC3 - MaryJane







Infomation


General
Complete name                            : Miracle On 34th Street 1947 BRRip 720p x264 AC3 - MaryJane.mp4
Format                                   : MPEG-4
Format profile                           : Base Media
Codec ID                                 : isom
File size                                : 2.72 GiB
Duration                                 : 1h 36mn
Overall bit rate                         : 4 038 Kbps
Writing application                      : Lavf53.18.0

Video
ID                                       : 1
Format                                   : AVC
Format/Info                              : Advanced Video Codec
Format profile                           : Main@L3.1
Format settings, CABAC                   : Yes
Format settings, ReFrames                : 4 frames
Codec ID                                 : avc1
Codec ID/Info                            : Advanced Video Coding
Duration                                 : 1h 36mn
Bit rate                                 : 3 400 Kbps
Width                                    : 992 pixels
Height                                   : 720 pixels
Display aspect ratio                     : 1.378
Frame rate mode                          : Constant
Frame rate                               : 23.976 fps
Color space                              : YUV
Chroma subsampling                       : 4:2:0
Bit depth                                : 8 bits
Scan type                                : Progressive
Bits/(Pixel*Frame)                       : 0.199
Stream size                              : 2.29 GiB (84%)
Writing library                          : x264 core 119

Audio
ID                                       : 2
Format                                   : AC-3
Format/Info                              : Audio Coding 3
Mode extension                           : CM (complete main)
Format settings, Endianness              : Big
Codec ID                                 : ac-3
Duration                                 : 1h 36mn
Bit rate mode                            : Constant
Bit rate                                 : 640 Kbps
Channel count                            : 2 channels
Channel positions                        : Front: L R
Sampling rate                            : 48.0 KHz
Bit depth                                : 16 bits
Compression mode                         : Lossy
Delay relative to video                  : 83ms
Stream size                              : 441 MiB (16%)


http://www.imdb.com/title/tt0039628/?ref_=fn_al_tt_2




The Polar Express (2004) 1080p HDDVD x264 AC3 5.1 - MaryJane

Plot

The Polar Express (2004)
100 min  -  Animation | Adventure | Family  -   10 December 2004 (UK)
IMDB Rating 6.5

On Christmas Eve, a doubting boy boards a magical train that's headed to the North Pole and Santa Claus's home.

Director : Robert Zemeckis
Writers : Chris Van Allsburg (book), Robert Zemeckis (screenplay)

Cast

Tom Hanks ... Hero Boy / Father / Conductor / Hobo / Scrooge / Santa Claus
Leslie Zemeckis ... Sister Sarah / Mother
Eddie Deezen ... Know-It-All
Nona Gaye ... Hero Girl
Peter Scolari ... Billy - Lonely Boy
Andy Pellick ... Pastry Chef
Josh Eli ... Waiter
Mark Mendonca ... Waiter
Rolandas Hendricks ... Waiter
Mark Goodman ... Waiter
Jon Scott ... Waiter
Gregory Gast ... Waiter
Sean Scott ... Waiter
Gordon Hart ... Waiter
Michael Jeter ... Smokey / Steamer
Chris Coppola ... Toothless Boy / Elf
Julene Renee-Preciado ... Red Head Girl / Elf (as Julene Renee)
Charles Fleischer ... Elf General
Steven Tyler ... Elf Lieutenant / Elf Singer







Infomation


General
Complete name                            : The Polar Express (2004) 1080p HDDVD x264 AC3 5.1 - MaryJane.mp4
Format                                   : MPEG-4
Format profile                           : Base Media
Codec ID                                 : isom
File size                                : 7.14 GiB
Duration                                 : 1h 39mn
Overall bit rate                         : 10.2 Mbps
Writing application                      : Lavf53.18.0

Video
ID                                       : 1
Format                                   : AVC
Format/Info                              : Advanced Video Codec
Format profile                           : High@L4.0
Format settings, CABAC                   : Yes
Format settings, ReFrames                : 4 frames
Codec ID                                 : avc1
Codec ID/Info                            : Advanced Video Coding
Duration                                 : 1h 39mn
Bit rate                                 : 10 000 Kbps
Width                                    : 1 920 pixels
Height                                   : 804 pixels
Display aspect ratio                     : 2.40:1
Frame rate mode                          : Constant
Frame rate                               : 23.976 fps
Color space                              : YUV
Chroma subsampling                       : 4:2:0
Bit depth                                : 8 bits
Scan type                                : Progressive
Bits/(Pixel*Frame)                       : 0.270
Stream size                              : 6.91 GiB (97%)
Writing library                          : x264 core 119
Language                                 : English

Audio
ID                                       : 2
Format                                   : AC-3
Format/Info                              : Audio Coding 3
Mode extension                           : CM (complete main)
Format settings, Endianness              : Big
Codec ID                                 : ac-3
Duration                                 : 1h 39mn
Bit rate mode                            : Constant
Bit rate                                 : 320 Kbps
Channel(s)                               : 6 channels
Channel positions                        : Front: L C R, Side: L R, LFE
Sampling rate                            : 48.0 KHz
Bit depth                                : 16 bits
Compression mode                         : Lossy
Delay relative to video                  : 83ms
Stream size                              : 229 MiB (3%)
Language                                 : English


http://www.imdb.com/title/tt0338348/




The Snowman (1982) 720p BRRip x264 AC3 - MaryJane

Plot

The Snowman (1982)
26 min  -  Animation | Short | Adventure  -  26 December 1982 (USA)
IMDB Rating 7.9

Wordless (save for the song "Walking in the Air" animated adventure about a young English boy who makes a snowman one Christmas Eve, only for it to come to life that night and take him on a magical adventure to the North Pole to meet Santa Claus.

Directors: Dianne Jackson, Jimmy T. Murakami
Writer: Raymond Briggs







Infomation


General
Complete name                            : The Snowman (1982) 720p BRRip x264 AC3 - MaryJane.mp4
Format                                   : MPEG-4
Format profile                           : Base Media
Codec ID                                 : isom
File size                                : 805 MiB
Duration                                 : 25mn 38s
Overall bit rate                         : 4 393 Kbps
Writing application                      : Lavf53.18.0

Video
ID                                       : 1
Format                                   : AVC
Format/Info                              : Advanced Video Codec
Format profile                           : Main@L3.1
Format settings, CABAC                   : Yes
Format settings, ReFrames                : 4 frames
Codec ID                                 : avc1
Codec ID/Info                            : Advanced Video Coding
Duration                                 : 25mn 38s
Bit rate                                 : 3 800 Kbps
Width                                    : 1 280 pixels
Height                                   : 720 pixels
Display aspect ratio                     : 16:9
Frame rate mode                          : Constant
Frame rate                               : 25.000 fps
Color space                              : YUV
Chroma subsampling                       : 4:2:0
Bit depth                                : 8 bits
Scan type                                : Progressive
Bits/(Pixel*Frame)                       : 0.165
Stream size                              : 687 MiB (85%)
Writing library                          : x264 core 119

Audio
ID                                       : 2
Format                                   : AC-3
Format/Info                              : Audio Coding 3
Mode extension                           : CM (complete main)
Format settings, Endianness              : Big
Codec ID                                 : ac-3
Duration                                 : 25mn 38s
Bit rate mode                            : Constant
Bit rate                                 : 640 Kbps
Channel count                            : 2 channels
Channel positions                        : Front: L R
Sampling rate                            : 48.0 KHz
Bit depth                                : 16 bits
Compression mode                         : Lossy
Delay relative to video                  : 80ms
Stream size                              : 117 MiB (15%)


http://www.imdb.com/title/tt0084701/?ref_=sr_5




This is an old pack that I share at this time of year, it's why it's in x264 as we only encode to x265 now.



1UPm  |  PiR8  |  TPTB  |  TeEdEe  | TRiNiTY | BHRG  |  n00b

LoNeWolf | HighCode | aAf | CM8 | ThEbUnNy  |  mrclassic


Thanks to | Bassjunkie | for our gfx!!

To all the scene and P2P groups that have inspired us.


[center][/center]
Related Torrents
Type Name Size
Movies/x265 A Christmas Carol 2009 BluRay 10Bit 1080p DD5 1 H265-d3g New!
1 year and 12 months ago
02.27 GB3 0

<< 1 - 20 | 21 - 22 >>

eyeman

(Power User)

:t49:

jaycee852

(Power User)

:thankyou:

<< 1 - 20 | 21 - 22 >>