The Guyver 2 Dark Hero 1994 Xvid - Torrenting.com

The Guyver 2 Dark Hero 1994 Xvid

Category: Movies| Size: 1.34 GB| Added: 2016-11-28 00:34:30

Download
SubscribeBookmark Report

0 0

Guyver: Dark Hero (1994)

Action, Sci-Fi
Ratings: 6 / 10
Votes: 2,978 People
Guyver: Dark Hero is a movie starring David Hayter, Kathy Christopherson, and Bruno Patrick. Sean Barker became the unwilling host to an alien bio-armor known as the Guyver. A year ago he destroyed the Kronos Corporation, an...
Actors: David Hayter, Kathy Christopherson, Bruno Patrick, Christopher Michael, Stuart Weiss, Billi Lee, Jim O'Donoghoe, J.D. Smith, Alisa Merline, Wes Deitrick, Veronica Reed, Stephen Oprychal, Ann George, Marisa Cody, Kristin Calkins


[IMG]hxxp://lookpic.com/O/i2/166/dQdGxC18.jpeg[/IMG]

The Guyver 2 Dark Hero 1994 Xvid

Plot

Sean Barker became the unwilling host to an alien bio-armor known as the Guyver.
A year ago he destroyed the Kronos Corporation, an organization of mutants who want the Guyver.
Now he is trying to find why the Guyver unit forces him to fight and kill evil.
He is lead to an archelogical site where scientists discover an ancient space craft.
Now he must fight Kronos again before they discover the secrets of the Guyver's origin.

IMDb: http://www.imdb.com/title/tt0109965/?ref_=nv_sr_2



[IMG]hxxp://lookpic.com/O/i2/1673/pwWzqceA.jpeg[/IMG]

Infomation


Video
ID                          : 0
Format                      : MPEG-4 Visual
Format profile              : Advanced Simple@L5
Format settings, BVOP       : 2
Format settings, QPel       : No
Format settings, GMC        : No warppoints
Format settings, Matrix     : Default (H.263)
Codec ID                    : XVID
Codec ID/Hint               : XviD
Duration                    : 2 h 3 min
Bit rate                    : 1 407 kb/s
Width                       : 640 pixels
Height                      : 336 pixels
Display aspect ratio        : 1.905
Frame rate                  : 23.976 (24000/1001) FPS
Color space                 : YUV
Chroma subsampling          : 4:2:0
Bit depth                   : 8 bits
Scan type                   : Progressive
Compression mode            : Lossy
Bits/(Pixel*Frame)          : 0.273
Stream size                 : 1.22 GiB (91%)
Writing library             : XviD 1.0.3 (UTC 2004-12-20)

Audio
ID                          : 1
Format                      : MPEG Audio
Format version              : Version 1
Format profile              : Layer 3
Mode                        : Joint stereo
Mode extension              : MS Stereo
Codec ID                    : 55
Codec ID/Hint               : MP3
Duration                    : 2 h 3 min
Bit rate mode               : Constant
Bit rate                    : 128 kb/s
Channel(s)                  : 2 channels
Sampling rate               : 48.0 kHz
Compression mode            : Lossy
Stream size                 : 113 MiB (8%)
Alignment                   : Split accross interleaves
Interleave, duration        : 42  ms (1.00 video frame)
Interleave, preload duratio : 500  ms




<< 1 - 6 >>

guyana234

(Power User)

ty
thank you  :t60:

Kel1

(Power User)

thanx

noddy212003

(Power User)

thanks

goober

(Power User)

thank you
thank you

<< 1 - 6 >>