In Fear 2013 1080p WEB-DL x264 AC3-eSc - Torrenting.com

In Fear 2013 1080p WEB-DL x264 AC3-eSc

Category: Movies/HD| Size: 1.54 GB| Added: 2016-11-27 19:48:20

Download
SubscribeBookmark Report

1 0

In Fear (2013)

Horror, Mystery, Thriller
Ratings: 5.4 / 10
Votes: 8,291 People
Driving to a music festival in Ireland, a new couple become lost and are then set upon by a tormentor with an unknown motive.
Actors: Iain De Caestecker, Alice Englert, Allen Leech


[IMG]hxxp://lookpic.com/O/i2/1950/ELY9sEAh.jpeg[/IMG]

In.Fear.2013.1080p.WEB-DL.x264.AC3-eSc

Plot

Driving to a music festival in Ireland, a new couple become lost and are then set upon by a tormentor with an unknown motive.

http://www.imdb.com/title/tt2165859/

Cast

Iain De Caestecker ... Tom
Alice Englert ... Lucy
Allen Leech ... Max







[IMG]hxxp://lookpic.com/O/i2/1966/KTYxXerp.jpeg[/IMG]
[IMG]hxxp://lookpic.com/O/i2/179/txus6eJ4.jpeg[/IMG]
[IMG]hxxp://lookpic.com/O/i2/1362/2dapVbp2.jpeg[/IMG]
[IMG]hxxp://lookpic.com/O/i2/1522/cyXC06br.jpeg[/IMG]
[IMG]hxxp://lookpic.com/O/i2/1904/2BvBT0ZH.jpeg[/IMG]

Infomation


Video
ID                                       : 1
Format                                   : AVC
Format/Info                              : Advanced Video Codec
Format profile                           : High@L4.1
Format settings, CABAC                   : Yes
Format settings, ReFrames                : 8 frames
Codec ID                                 : avc1
Codec ID/Info                            : Advanced Video Coding
Duration                                 : 1 h 25 min
Bit rate                                 : 1 100 kb/s
Width                                    : 1 280 pixels
Height                                   : 550 pixels
Display aspect ratio                     : 2.35:1
Original display aspect ratio            : 2.35:1
Frame rate mode                          : Variable
Frame rate                               : 23.976 FPS
Minimum frame rate                       : 11.989 FPS
Maximum frame rate                       : 23.981 FPS
Color space                              : YUV
Chroma subsampling                       : 4:2:0
Bit depth                                : 8 bits
Scan type                                : Progressive
Bits/(Pixel*Frame)                       : 0.065
Stream size                              : 669 MiB (89%)
Writing library                          : x264 core 142 r2479 dd79a61
Encoding settings                        : cabac=1 / ref=8 / deblock=1:-1:-1 / analyse=0x3:0x133 / me=umh / subme=9 / psy=1 / psy_rd=1.00:0.15 / mixed_ref=1 / me_range=16 / chroma_me=1 / trellis=2 / 8x8dct=1 / cqm=0 / deadzone=21,11 / fast_pskip=1 / chroma_qp_offset=-3 / threads=12 / lookahead_threads=1 / sliced_threads=0 / nr=0 / decimate=1 / interlaced=0 / bluray_compat=0 / constrained_intra=0 / bframes=3 / b_pyramid=2 / b_adapt=2 / b_bias=0 / direct=3 / weightb=1 / open_gop=0 / weightp=2 / keyint=240 / keyint_min=24 / scenecut=40 / intra_refresh=0 / rc_lookahead=60 / rc=2pass / mbtree=1 / bitrate=1100 / ratetol=1.0 / qcomp=0.60 / qpmin=0 / qpmax=69 / qpstep=4 / cplxblur=20.0 / qblur=0.5 / vbv_maxrate=62500 / vbv_bufsize=78125 / nal_hrd=none / filler=0 / ip_ratio=1.40 / aq=1:1.00
Encoded date                             : UTC 2016-11-25 20:43:17
Tagged date                              : UTC 2016-11-25 20:43:17
Color range                              : Limited
Color primaries                          : BT.709
Transfer characteristics                 : BT.709
Matrix coefficients                      : BT.709
Menus                                    : 3

Audio
ID                                       : 2
Format                                   : AC-3
Format/Info                              : Audio Coding 3
Mode extension                           : CM (complete main)
Format settings, Endianness              : Big
Codec ID                                 : ac-3
Duration                                 : 1 h 25 min
Bit rate mode                            : Constant
Bit rate                                 : 128 kb/s
Channel(s)                               : 2 channels
Channel positions                        : Front: L R
Sampling rate                            : 48.0 kHz
Frame rate                               : 31.250 FPS (1536 spf)
Bit depth                                : 16 bits
Compression mode                         : Lossy
Stream size                              : 77.9 MiB (10%)
Title                                    : Stereo / Stereo
Language                                 : English
Default                                  : Yes
Alternate group                          : 1
Encoded date                             : UTC 2016-11-25 20:43:17
Tagged date                              : UTC 2016-11-25 20:43:17
Menus                                    : 3

Menu
ID                                       : 3
Codec ID                                 : text
Duration                                 : 1 h 25 min
Language                                 : English
Encoded date                             : UTC 2016-11-25 20:43:17
Tagged date                              : UTC 2016-11-25 20:43:17
Menu For                                 : 1,2
00:00:00.000                             : Main Title / A Special Treat
00:09:59.308                             : Search For Kilairney House
00:14:55.312                             : Foreboding
00:22:15.294                             : In Case Of Fire
00:27:11.298                             : In A Panic
00:34:38.328                             : "Did You Do This To Me?"
00:43:56.303                             : Butchers And Hunters
00:50:23.357                             : The Pub Happening
00:56:24.343                             : "Drive As Fast As You Can"
01:04:17.441                             : Pursuit
01:15:55.305                             : A Cruel Fate
01:20:31.290                             : End Credits
Bit rate mode                            : VBR



[center][/center]
Related Torrents
Type Name Size
Movies/x265 In Fear 2013 BluRay 10Bit 1080p DD5 1 H265-d3g New!
10 months and 2 weeks ago
01.95 GB1 0

<< 1 - 2 >>

postman

(Power User)

Thank you

<< 1 - 2 >>