Jason Bourne X 5 1080p BluRay HEVC Movie Pack-D3FiL3R - Torrenting.com

Jason Bourne X 5 1080p BluRay HEVC Movie Pack-D3FiL3R

[FreeLeech]

Category: Movies/Packs| Size: 18.51 GB| Added: 2016-11-26 20:44:11

Download
SubscribeBookmark Report

3 0

Jason Bourne (2016)

Action, Thriller
Ratings: 6.6 / 10
Votes: 195,356 People
The CIAs most dangerous former operative is drawn out of hiding to uncover more explosive truths about his past.
Actors: Matt Damon, Tommy Lee Jones, Alicia Vikander, Vincent Cassel, Julia Stiles, Riz Ahmed, Ato Essandoh, Scott Shepherd, Bill Camp, Vinzenz Kiefer, Stephen Kunken, Ben Stylianou, Kaya Yuzuki, Matthew O'Neill, Lizzie Phillips


[IMG]hxxp://lookpic.com/O/i2/22/nS30lndJ.jpeg[/IMG]

Jason Bourne X 5 1080p BluRay HEVC Movie Pack-D3FiL3R


Titles:

The Bourne Identity (2002)
The Bourne Supremacy (2004)  
The Bourne Ultimatum (2007)
The Bourne Legacy (2012)
Jason Bourne (2016)



IMDb: http://www.imdb.com/title/tt4196776/




[IMG]hxxp://lookpic.com/O/i2/1479/kWh7vZ6q.png[/IMG]
======================
[IMG]hxxp://lookpic.com/O/i2/319/uvZYFemY.png[/IMG]
======================
[IMG]hxxp://lookpic.com/O/i2/1500/qBwmNksV.png[/IMG]
======================
[IMG]hxxp://lookpic.com/O/i2/564/t1fPlWtH.png[/IMG]
======================
[IMG]hxxp://lookpic.com/O/i2/780/zeMdC3Q4.png[/IMG]
======================
[IMG]hxxp://lookpic.com/O/i2/103/Q9m6dPwv.png[/IMG]
======================
[IMG]hxxp://lookpic.com/O/i2/396/hzUeiyZ8.png[/IMG]
======================
[IMG]hxxp://lookpic.com/O/i2/606/Dau4ZTlV.png[/IMG]
======================
[IMG]hxxp://lookpic.com/O/i2/1886/IMSwdgmD.png[/IMG]
======================
[IMG]hxxp://lookpic.com/O/i2/898/26OBcAkR.png[/IMG]
======================
[IMG]hxxp://lookpic.com/O/i2/756/mMs9acbV.png[/IMG]
======================
[IMG]hxxp://lookpic.com/O/i2/131/KBA3ZYnI.png[/IMG]
======================
[IMG]hxxp://lookpic.com/O/i2/138/vKjVss4f.png[/IMG]
======================
[IMG]hxxp://lookpic.com/O/i2/1371/feUvgpQH.png[/IMG]
======================
[IMG]hxxp://lookpic.com/O/i2/68/ULNFapwG.png[/IMG]
======================





Infomation


Complete name                            : Jason Bourne - 2016 BluRay 1080p DD5.1 x265-D3FiL3R.mkv
Format                                   : Matroska
Format version                           : Version 2
File size                                : 3.81 GiB
Duration                                 : 2 h 3 min
Overall bit rate                         : 4 432 kb/s
Movie name                               : Jason Bourne - 2016 BluRay  
Encoded date                             : UTC 2016-11-19 14:04:03
Writing application                      : DVDFab 9.3.2.1
Writing library                          : libebml v0.7.8 + libmatroska v0.8.1

Video
ID                                       : 1
Format                                   : HEVC
Format/Info                              : High Efficiency Video Coding
Format profile                           : Main@L5@High
Codec ID                                 : V_MPEGH/ISO/HEVC
Duration                                 : 2 h 3 min
Bit rate                                 : 3 896 kb/s
Width                                    : 1 920 pixels
Height                                   : 804 pixels
Display aspect ratio                     : 2.40:1
Frame rate mode                          : Constant
Frame rate                               : 23.976 (24000/1001) FPS
Color space                              : YUV
Chroma subsampling                       : 4:2:0
Bit depth                                : 8 bits
Bits/(Pixel*Frame)                       : 0.105
Stream size                              : 3.35 GiB (88%)
Default                                  : Yes
Forced                                   : No

Audio
ID                                       : 2
Format                                   : AC-3
Format/Info                              : Audio Coding 3
Mode extension                           : CM (complete main)
Format settings, Endianness              : Big
Codec ID                                 : A_AC3
Duration                                 : 2 h 3 min
Bit rate mode                            : Constant
Bit rate                                 : 448 kb/s
Channel(s)                               : 6 channels
Channel positions                        : Front: L C R, Side: L R, LFE
Sampling rate                            : 48.0 kHz
Frame rate                               : 31.250 FPS (1536 spf)
Bit depth                                : 16 bits
Compression mode                         : Lossy
Stream size                              : 395 MiB (10%)
Language                                 : English
Default                                  : Yes
Forced                                   : No

Text
ID                                       : 3
Format                                   : PGS
Codec ID                                 : S_HDMV/PGS
Codec ID/Info                            : Picture based subtitle format used on BDs/HD-DVDs
Language                                 : English
Default                                  : Yes
Forced                                   : No







Source: BluRay Retail Disc's


Bassjunkie


My Torrenting Sensei! Thanks so much!!!


[IMG]hxxp://lookpic.com/O/i2/495/nurxyqjn.jpeg[/IMG]


Related Torrents
Type Name Size
Movies Jason Bourne 2016 HDRip XviD AC3-EVO New!
3 years and 1 month ago
01.40 GB5 0
Movies Jason Bourne 720p HDTC X264-NUKU New!
3 years and 3 months ago
02.49 GB3 0
Movies Jason Bourne 2016 HC HDRip XviD AC3-EVO New!
3 years and 3 months ago
01.40 GB2 0
Movies Jason Bourne 2016 HDRip XviD - WeTv New!
3 years and 1 month ago
0701.86 MB2 0
Movies/x265 Jason Bourne 2016 BluRay 10Bit 1080p DD5 1 H265-d3g New!
2 years and 2 weeks ago
09.00 GB2 0

<< 1 - 20 | 21 - 33 >>

drewthescot

(VIP)

Great.They all were very good quality

sandyp

(VIP)

click

Pugilist

(Power User)

:t51:

InTooDeep

(Power User)

:t72:

zimmer106

(Power User)

Thanks  :t10:

sigmasigma

(Power User)

TY

Cosmo

(Power User)

:t75: Du a Thanks vry Much ,hu

phyrago

(User)

Great

sandyp

(VIP)

cclick
:t104:    cheers

thnx heaps

<< 1 - 20 | 21 - 33 >>