Ben Hur 2016 BRRip x264 AC3 TiTAN - Torrenting.com

Ben Hur 2016 BRRip x264 AC3 TiTAN

Category: Movies| Size: 1.60 GB| Added: 2016-11-26 20:38:24

Download
SubscribeBookmark Report

2 0

Ben-Hur (2016)

Action, Adventure, Drama, History
Ratings: 5.7 / 10
Votes: 39,032 People
Ben-Hur is a movie starring Jack Huston, Toby Kebbell, and Rodrigo Santoro. Judah Ben-Hur, a prince falsely accused of treason by his adopted brother, an officer in the Roman army, returns to his homeland after years at sea to seek...
Actors: Jack Huston, Toby Kebbell, Rodrigo Santoro, Nazanin Boniadi, Ayelet Zurer, Pilou Asbæk, Sofia Black-D'Elia, Morgan Freeman, Marwan Kenzari, Moises Arias, James Cosmo, Haluk Bilginer, David Walmsley, Yasen Atour, Francesco Scianna


http://www.imdb.com/title/tt2638144/

Source: 1080p GECKOS

General

Format : Matroska
Format version : Version 2
File size : 1.60 GiB
Duration : 2 h 4 min
Overall bit rate mode : Variable
Overall bit rate : 1 831 kb/s

Video
ID : 1
Format : AVC
Format/Info : Advanced Video Codec
Format profile : High@L4.1
Format settings, CABAC : Yes
Format settings, ReFrames : 3 frames
Codec ID : V_MPEG4/ISO/AVC
Duration : 2 h 4 min
Bit rate mode : Variable
Bit rate : 1 445 kb/s
Maximum bit rate : 14.0 Mb/s
Width : 720 pixels
Height : 304 pixels
Display aspect ratio : 2.35:1
Frame rate mode : Constant
Frame rate : 23.976 (24000/1001) FPS
Color space : YUV
Chroma subsampling : 4:2:0
Bit depth : 8 bits
Scan type : Progressive
Bits/(Pixel*Frame) : 0.275
Stream size : 1.26 GiB (79%)
Writing library : x264 core 148 r2638 7599210
Default : Yes
Forced : No
Color range : Full
Color primaries : BT.709
Transfer characteristics : BT.709
Matrix coefficients : BT.709

Audio
ID : 2
Format : AC-3
Format/Info : Audio Coding 3
Mode extension : CM (complete main)
Format settings, Endianness : Big
Codec ID : A_AC3
Duration : 2 h 4 min
Bit rate mode : Constant
Bit rate : 384 kb/s
Channel(s) : 6 channels
Channel positions : Front: L C R, Side: L R, LFE
Sampling rate : 48.0 kHz
Frame rate : 31.250 FPS (1536 spf)
Compression mode : Lossy
Stream size : 343 MiB (21%)
Language : English
Default : Yes
Forced : No






Related Torrents
Type Name Size
Movies Ben Hur 2016 BRRip XviD AC3-EVO New!
3 years and 1 week ago
01.41 GB3 0

<< 1 - 8 >>

:t66: Thank you, I"ve been waiting for this

clives1957

(Power User)

Thanks
Many thanks uploader
thanks chum!

banereturns

(Power User)

Thanks

liamar

(Power User)

Thanks a lot  :t9:

<< 1 - 8 >>