Search Party 2016 UNCENSORED Season 1 WEB-DL x264-eSc - Torrenting.com

Search Party 2016 UNCENSORED Season 1 WEB-DL x264-eSc

Category: TV/SD-x264| Size: 1.45 GB| Added: 2016-11-24 03:42:28

Download
Bookmark Report

1 1



[IMG]hxxp://lookpic.com/O/i2/1518/SV3Rg0rJ.png[/IMG]

Search.Party.2016.UNCENSORED.Season.1.WEB-DL.x264-eSc

Plot

Search Party is a dark comedy about five self-absorbed 20-somethings who become entangled in an ominous mystery when a former college acquaintance suddenly disappears.

http://www.tvmaze.com/shows/7522/search-party

Cast

Alia Shawkat ... Dory
Meredith Hagner ... Portia
John Early ... Elliott Goss
John Reynolds ... Drew
Brandon Michael Hall ... Julian

Episodes ... 10
Size ... 1.44 GB
Time ... 03:51:10
Resolution ... 720x406
Subtitles ... English



[IMG]hxxp://lookpic.com/O/i2/108/YzjXLXKb.jpeg[/IMG]
[IMG]hxxp://lookpic.com/O/i2/772/OjFtLxyO.jpeg[/IMG]
[IMG]hxxp://lookpic.com/O/i2/1509/J76RW3ds.jpeg[/IMG]
[IMG]hxxp://lookpic.com/O/i2/625/3zSLlyjn.jpeg[/IMG]
[IMG]hxxp://lookpic.com/O/i2/700/9FkNnJ9O.jpeg[/IMG]

Infomation


Video
ID                                       : 1
Format                                   : AVC
Format/Info                              : Advanced Video Codec
Format profile                           : High@L3.1
Format settings, CABAC                   : Yes
Format settings, ReFrames                : 4 frames
Codec ID                                 : avc1
Codec ID/Info                            : Advanced Video Coding
Duration                                 : 22 min 13 s
Bit rate                                 : 865 kb/s
Width                                    : 720 pixels
Height                                   : 406 pixels
Display aspect ratio                     : 16:9
Original display aspect ratio            : 16:9
Frame rate mode                          : Variable
Frame rate                               : 23.976 (23976/1000) FPS
Minimum frame rate                       : 11.989 FPS
Maximum frame rate                       : 23.981 FPS
Color space                              : YUV
Chroma subsampling                       : 4:2:0
Bit depth                                : 8 bits
Scan type                                : Progressive
Bits/(Pixel*Frame)                       : 0.123
Stream size                              : 137 MiB (87%)
Writing library                          : x264 core 142 r2479 dd79a61
Encoding settings                        : cabac=1 / ref=3 / deblock=1:0:0 / analyse=0x3:0x113 / me=hex / subme=7 / psy=1 / psy_rd=1.00:0.00 / mixed_ref=1 / me_range=16 / chroma_me=1 / trellis=1 / 8x8dct=1 / cqm=0 / deadzone=21,11 / fast_pskip=1 / chroma_qp_offset=-2 / threads=12 / lookahead_threads=2 / sliced_threads=0 / nr=0 / decimate=1 / interlaced=0 / bluray_compat=0 / constrained_intra=0 / bframes=3 / b_pyramid=2 / b_adapt=1 / b_bias=0 / direct=1 / weightb=1 / open_gop=0 / weightp=2 / keyint=240 / keyint_min=24 / scenecut=40 / intra_refresh=0 / rc_lookahead=40 / rc=crf / mbtree=1 / crf=20.0 / qcomp=0.60 / qpmin=0 / qpmax=69 / qpstep=4 / vbv_maxrate=17500 / vbv_bufsize=17500 / crf_max=0.0 / nal_hrd=none / filler=0 / ip_ratio=1.40 / aq=1:1.00
Encoded date                             : UTC 2016-11-22 20:54:05
Tagged date                              : UTC 2016-11-22 20:54:05
Color range                              : Limited
Color primaries                          : BT.709
Transfer characteristics                 : BT.709
Matrix coefficients                      : BT.709

Audio
ID                                       : 2
Format                                   : AAC
Format/Info                              : Advanced Audio Codec
Format profile                           : LC
Codec ID                                 : 40
Duration                                 : 22 min 13 s
Bit rate mode                            : Variable
Bit rate                                 : 125 kb/s
Channel(s)                               : 2 channels
Channel positions                        : Front: L R
Sampling rate                            : 48.0 kHz
Frame rate                               : 46.875 FPS (1024 spf)
Compression mode                         : Lossy
Stream size                              : 19.9 MiB (13%)
Title                                    : Stereo / Stereo
Language                                 : English
Default                                  : Yes
Alternate group                          : 1
Encoded date                             : UTC 2016-11-22 20:54:05
Tagged date                              : UTC 2016-11-22 20:54:05



[center][/center]

<< 1 - 2 >>

thank you  :t64:
Perfect Thanks muchly

<< 1 - 2 >>