The Magnificent Seven (2016) HDCAM XviD UnKnOwN - Torrenting.com

The Magnificent Seven (2016) HDCAM XviD UnKnOwN

Category: Movies| Size: 2.75 GB| Added: 2016-09-26 13:34:27

Download
SubscribeBookmark Report

0 0

The Magnificent Seven (2016)

Action, Adventure, Western
Ratings: 6.9 / 10
Votes: 171,017 People
Seven gunmen from a variety of backgrounds are brought together by a vengeful young widow to protect her town from the private army of a...
Actors: Denzel Washington, Chris Pratt, Ethan Hawke, Vincent D'Onofrio, Byung-Hun Lee, Manuel Garcia-Rulfo, Martin Sensmeier, Haley Bennett, Peter Sarsgaard, Luke Grimes, Matt Bomer, Jonathan Joss, Cam Gigandet, Emil Beheshti, Mark Ashworth


[IMG]hxxp://lookpic.com/O/i2/979/djChaWSg.jpeg[/IMG]

The Magnificent Seven (2016) HDCAM XviD UnKnOwN

Plot

Seven gun men in the old west gradually come together to help a poor village against savage thieves.

IMDb: http://www.imdb.com/title/tt2404435/

Cast

Denzel Washington...Chisolm
Chris Pratt ...Josh Faraday
Ethan Hawke...Goodnight Robicheaux
Vincent D'Onofrio...Jack Horne
Byung-hun Lee...Billy Rocks
Manuel Garcia-Rulfo...Vasquez



[IMG]hxxp://lookpic.com/O/i2/1028/6oaAsj3z.jpeg[/IMG]





Infomation


Format                      : AVI
Format/Info                 : Audio Video Interleave
File size                   : 2.67 GiB
Duration                    : 2 h 8 min
Overall bit rate            : 2 978 kb/s

Video
ID                          : 0
Format                      : MPEG-4 Visual
Format profile              : Advanced Simple@L4
Format settings, BVOP       : 2
Format settings, QPel       : No
Format settings, GMC        : No warppoints
Format settings, Matrix     : Default (H.263)
Codec ID                    : DIVX
Codec ID/Info               : Project Mayo
Codec ID/Hint               : DivX 4
Duration                    : 2 h 8 min
Bit rate                    : 2 774 kb/s
Width                       : 720 pixels
Height                      : 336 pixels
Display aspect ratio        : 2.143
Frame rate                  : 29.970 (30000/1001) FPS
Color space                 : YUV
Chroma subsampling          : 4:2:0
Bit depth                   : 8 bits
Scan type                   : Progressive
Compression mode            : Lossy
Bits/(Pixel*Frame)          : 0.383
Stream size                 : 2.48 GiB (93%)
Writing library             : XviD 64

Audio
ID                          : 1
Format                      : AC-3
Format/Info                 : Audio Coding 3
Mode extension              : CM (complete main)
Format settings, Endianness : Big
Codec ID                    : 2000
Duration                    : 2 h 8 min
Bit rate mode               : Constant
Bit rate                    : 192 kb/s
Channel(s)                  : 2 channels
Channel positions           : Front: L R
Sampling rate               : 48.0 kHz
Frame rate                  : 31.250 FPS (1536 spf)
Compression mode            : Lossy
Stream size                 : 176 MiB (6%)
Alignment                   : Aligned on interleaves
Interleave, duration        : 32  ms (0.96 video frame)





[IMG]hxxp://lookpic.com/O/i2/1452/HmVVp5PV.jpeg[/IMG]

Related Torrents
Type Name Size
Movies The Magnificent Seven 2016 720p BRRip X264 AC3-EVO New!
2 years and 9 months ago
02.99 GB6 0
Movies The Magnificent Seven 2016 BRRip x264 AC3-DR New!
2 years and 9 months ago
01.45 GB3 0
Movies The Magnificent Seven 2016 BRRip XviD AC3-EVO New!
2 years and 9 months ago
01.53 GB3 0
Movies The Magnificent Seven (2016) ReadNFO TS XVID-1Click New!
2 years and 12 months ago
02.04 GB1 0
Movies The Magnificent Seven 2016 TS x264 New!
2 years and 11 months ago
01.41 GB1 0

<< 1 - 20 | 21 - 40 | 41 - 60 | 61 - 70 >>

very good thankyou :t46:

Bobfromtheband

(Power User)

A good copy, thank you!

bpd223

(Power User)

A little dark, but watchable.  Thanks!
A/V = 9/7
Thank you for the up! A/V 9

rein53

(VIP)

thanks

bieg

(Power User)

Good movie, thanks
Potato quality, even for a cam movie, but watchable

bonzokhan

(Power User)

:t90:

IlTecnico

(Power User)

:t70:
great job loved it

<< 1 - 20 | 21 - 40 | 41 - 60 | 61 - 70 >>