Law and Order UK season1 thru 7 Complete - Torrenting.com

Law and Order UK season1 thru 7 Complete

[FreeLeech]

Category: TV/Packs| Size: 15.09 GB| Added: 2019-05-09 14:32:28

Download
SubscribeBookmark Report

7 0

Law & Order: UK (2009)

Crime, Drama, Mystery
Ratings: 7.5 / 10
Votes: 2,968 People
Law & Order: UK is a TV series starring Bradley Walsh, Robert Glenister, and Harriet Walter. UK version of the long-running U.S. TV drama that tells the stories of two separate yet equally important groups: the police, who...
Actors: Bradley Walsh, Robert Glenister, Harriet Walter, Freema Agyeman, Jamie Bamber, Jessica Gunning, Dominic Rowan, Peter Davison, Ben Daniels, Bill Paterson







Law and Order UK season1 thru 7 Complete



Infomation



https://www.imdb.com/title/tt1166893/?ref_=fn_al_tt_1

Format: AVI
Format/Info: Audio Video Interleave
File size: 351 MiB
Duration: 45 min 45 s
Overall bit rate mode: Variable
Overall bit rate: 1 073 kb/s
Writing application: VirtualDubMod 1.5.10.2 (build 2540/release)
Writing library: VirtualDubMod build 2540/release

Video
ID: 0
Format: MPEG-4 Visual
Format profile: Advanced Simple@L5
Format settings: BVOP2
Format settings, BVOP: 2
Format settings, QPel: No
Format settings, GMC: No warppoints
Format settings, Matrix: Default (H.263)
Codec ID: XVID
Codec ID/Hint: XviD
Duration: 45 min 45 s
Bit rate: 927 kb/s
Width: 624 pixels
Height: 352 pixels
Display aspect ratio: 16:9
Frame rate: 25.000 FPS
Color space: YUV
Chroma subsampling: 4:2:0
Bit depth: 8 bits
Scan type: Progressive
Compression mode: Lossy
Bits/(Pixel*Frame): 0.169
Stream size: 303 MiB (86%)
Writing library: XviD 1.2.1 (UTC 2008-12-04)

Audio
ID: 1
Format: MPEG Audio
Format version: Version 1
Format profile: Layer 3
Format settings: Joint stereo / MS Stereo
Codec ID: 55
Codec ID/Hint: MP3
Duration: 45 min 45 s
Bit rate mode: Variable
Bit rate: 128 kb/s
Channel(s): 2 channels
Sampling rate: 48.0 kHz
Frame rate: 41.667 FPS (1152 SPF)
Compression mode: Lossy
Stream size: 43.4 MiB (12%)
Alignment: Aligned on interleaves
Interleave, duration: 24 ms (0.60 video frame)
Interleave, preload duration: 477 ms
Writing library: LAME3.90
Encoding settings: -m j -V 4 -q 2 -lowpass 17.6 --abr 128



















<< 1 - 6 >>

bemebe

(Power User)

thank you

paul1259

(Power User)

:t217: Thank You :t222:

Taichi62

(Power User)

Thank you :t315:

deeteedub

(Power User)

Thanks very much!  I hope you're going to share Season 8!

porntip

(Power User)

Splendid offering, been looking for this for some time .Thanks :t251:

scotjock1947

(Power User)

Thank you

<< 1 - 6 >>