What We Do In The Shadows S01E07 720p WEBRip x264-eSc - Torrenting.com

What We Do In The Shadows S01E07 720p WEBRip x264-eSc

Category: TV/x264 HD| Size: 566.42 MB| Added: 2019-05-09 05:37:54

Download
SubscribeBookmark Report

3 0

What We Do in the Shadows (2019)

Comedy, Fantasy, Horror
Ratings: 8.4 / 10
Votes: 14,590 People
A look into the daily (or rather, nightly) lives of three vampires, whove lived together for over 100 years, on Staten Island.
Actors: Kayvan Novak, Matt Berry, Natasia Demetriou, Harvey Guillén, Mark Proksch, Doug Jones




What.We.Do.In.The.Shadows.S01E07.720p.WEBRip.x264-eSc

Plot

Set in New York City, What We Do in the Shadows follows three vampires who have been roommates for hundreds and hundreds of years.

http://www.tvmaze.com/shows/34522/what-we-do-in-the-shadows

Cast

Mark Proksch ... Colin Robinson
Matt Berry ... Laszio Cravensworth
Harvey Guillen ... Guillermo
Kayvan Novak ... Nandor
Natasia Demetriou ... Nadja









Infomation


General
Format : Matroska
Format version : Version 4
File size : 566 MiB
Duration : 24 min 35 s
Overall bit rate : 3 219 kb/s
Encoded date : UTC 2019-05-09 02:57:13
Writing application : mkvmerge v32.0.0 ('Astral Progressions') 64-bit
Writing library : libebml v1.3.7 + libmatroska v1.5.0

Video
ID : 1
Format : AVC
Format/Info : Advanced Video Codec
Format profile : High@L3.1
Format settings : CABAC / 4 Ref Frames
Format settings, CABAC : Yes
Format settings, RefFrames : 4 frames
Codec ID : V_MPEG4/ISO/AVC
Duration : 24 min 35 s
Bit rate : 3 090 kb/s
Width : 1 280 pixels
Height : 720 pixels
Display aspect ratio : 16:9
Frame rate mode : Constant
Frame rate : 23.976 (24000/1001) FPS
Color space : YUV
Chroma subsampling : 4:2:0
Bit depth : 8 bits
Scan type : Progressive
Bits/(Pixel*Frame) : 0.140
Stream size : 544 MiB (96%)
Writing library : x264 core 157 r2969 d4099dd
Encoding settings : cabac=1 / ref=3 / deblock=1:0:0 / analyse=0x3:0x113 / me=hex / subme=7 / psy=1 / psy_rd=1.00:0.00 / mixed_ref=1 / me_range=16 / chroma_me=1 / trellis=1 / 8x8dct=1 / cqm=0 / deadzone=21,11 / fast_pskip=1 / chroma_qp_offset=-2 / threads=18 / lookahead_threads=3 / sliced_threads=0 / nr=0 / decimate=1 / interlaced=0 / bluray_compat=0 / constrained_intra=0 / bframes=3 / b_pyramid=2 / b_adapt=1 / b_bias=0 / direct=1 / weightb=1 / open_gop=0 / weightp=2 / keyint=250 / keyint_min=23 / scenecut=40 / intra_refresh=0 / rc_lookahead=40 / rc=crf / mbtree=1 / crf=19.0 / qcomp=0.60 / qpmin=0 / qpmax=69 / qpstep=4 / ip_ratio=1.40 / aq=1:1.00
Default : Yes
Forced : No

Audio
ID : 2
Format : AAC LC SBR
Format/Info : Advanced Audio Codec Low Complexity with Spectral Band Replication
Commercial name : HE-AAC
Format settings : Implicit
Codec ID : A_AAC-2
Duration : 24 min 35 s
Bit rate : 127 kb/s
Channel(s) : 2 channels
Channel layout : L R
Sampling rate : 48.0 kHz
Frame rate : 23.438 FPS (2048 SPF)
Compression mode : Lossy
Stream size : 22.3 MiB (4%)
Language : English
Default : Yes
Forced : No

Text
ID : 3
Format : UTF-8
Codec ID : S_TEXT/UTF8
Codec ID/Info : UTF-8 Plain Text
Duration : 24 min 11 s
Bit rate : 140 b/s
Count of elements : 555
Stream size : 24.9 KiB (0%)
Language : English
Default : Yes
Forced : No




[center][/center]
Related Torrents
Type Name Size
TV/x264 HD What We Do in the Shadows S01E07 1080p WEB H264-MEMENTO New!
5 months and 2 weeks ago
02.17 GB3 0
TV/x265 What We Do in the Shadows S01E07 720p HEVC x265-MeGusta New!
5 months and 2 weeks ago
0216.07 MB3 0
TV/SD-x264 What We Do in the Shadows S01E07 XviD-AFG New!
5 months and 2 weeks ago
0208.51 MB2 0
TV/SD-x264 What We Do in the Shadows S01E07 480p x264-mSD New!
5 months and 2 weeks ago
085.94 MB2 0
TV/x265 What We Do in the Shadows S01E07 1080p HEVC x265-MeGusta New!
5 months and 2 weeks ago
0343.27 MB2 0