Vice News Tonight 2019 05 08 720p WEBRip x264-eSc - Torrenting.com

Vice News Tonight 2019 05 08 720p WEBRip x264-eSc

Category: TV/x264 HD| Size: 593.29 MB| Added: 2019-05-09 05:33:46

Download
SubscribeBookmark Report

1 0

Vice News Tonight (2016)

Ratings: 8.4 / 10
Votes: 330 People
Moynihan, and Daniel Hernandez. A nightly news show Monday through Friday. Discusses current global issues and various news topics.
Actors: Isobel Yeung, Michael C. Moynihan, Daniel Hernandez, Jay Caspian Kang




Vice.News.Tonight.2019.05.08.720p.WEBRip.x264-eSc

Plot

"Vice News Tonight" which premieres Oct. 10 (weeknights, 7:30 ET/PT) as the network's first daily series, won't just rehash the major stories of the day for those playing catch-up. Instead, the half-hour program assumes that viewers have already read the headlines on their phones and laptops, and want a more well-rounded, in-depth look at what's happening around the world

http://www.tvmaze.com/shows/21108/vice-news-tonight

Cast

Antonia Hylton ... Correspondent & Producer
Ben Anderson ... Correspondent & Producer
Arielle Duhaine-Ross ... Correspondent
Bijan Stephen ... Correspondent









Infomation


General
Format : Matroska
Format version : Version 4
File size : 593 MiB
Duration : 28 min 13 s
Overall bit rate : 2 940 kb/s
Encoded date : UTC 2019-05-09 01:23:06
Writing application : mkvmerge v32.0.0 ('Astral Progressions') 64-bit
Writing library : libebml v1.3.7 + libmatroska v1.5.0

Video
ID : 1
Format : AVC
Format/Info : Advanced Video Codec
Format profile : High@L3.1
Format settings : CABAC / 4 Ref Frames
Format settings, CABAC : Yes
Format settings, RefFrames : 4 frames
Codec ID : V_MPEG4/ISO/AVC
Duration : 28 min 12 s
Bit rate : 2 809 kb/s
Width : 1 280 pixels
Height : 720 pixels
Display aspect ratio : 16:9
Frame rate mode : Constant
Frame rate : 29.970 (29970/1000) FPS
Color space : YUV
Chroma subsampling : 4:2:0
Bit depth : 8 bits
Scan type : Progressive
Bits/(Pixel*Frame) : 0.102
Stream size : 567 MiB (96%)
Writing library : x264 core 157 r2969 d4099dd
Encoding settings : cabac=1 / ref=3 / deblock=1:0:0 / analyse=0x3:0x113 / me=hex / subme=7 / psy=1 / psy_rd=1.00:0.00 / mixed_ref=1 / me_range=16 / chroma_me=1 / trellis=1 / 8x8dct=1 / cqm=0 / deadzone=21,11 / fast_pskip=1 / chroma_qp_offset=-2 / threads=18 / lookahead_threads=3 / sliced_threads=0 / nr=0 / decimate=1 / interlaced=0 / bluray_compat=0 / constrained_intra=0 / bframes=3 / b_pyramid=2 / b_adapt=1 / b_bias=0 / direct=1 / weightb=1 / open_gop=0 / weightp=2 / keyint=250 / keyint_min=25 / scenecut=40 / intra_refresh=0 / rc_lookahead=40 / rc=crf / mbtree=1 / crf=18.0 / qcomp=0.60 / qpmin=0 / qpmax=69 / qpstep=4 / ip_ratio=1.40 / aq=1:1.00
Default : Yes
Forced : No

Audio
ID : 2
Format : AAC LC
Format/Info : Advanced Audio Codec Low Complexity
Codec ID : A_AAC-2
Duration : 28 min 12 s
Bit rate : 128 kb/s
Channel(s) : 2 channels
Channel layout : L R
Sampling rate : 48.0 kHz
Frame rate : 46.875 FPS (1024 SPF)
Compression mode : Lossy
Delay relative to video : -8 ms
Stream size : 25.9 MiB (4%)
Language : English
Default : Yes
Forced : No



[center][/center]
Related Torrents
Type Name Size
TV/SD-x264 Vice News Tonight 2019 04 23 WEBRip x264-eSc New!
5 months and 3 weeks ago
0139.43 MB5 0
TV/SD-x264 Vice News Tonight 2019 05 30 WEBRip x264-eSc New!
4 months and 2 weeks ago
0152.11 MB5 0
TV/SD-x264 Vice News Tonight 2019 05 03 WEBRip x264-eSc New!
5 months and 1 week ago
0190.25 MB5 0
TV/SD-x264 Vice News Tonight 2019 04 17 WEBRip x264-eSc New!
5 months and 4 weeks ago
0207.69 MB3 0
TV/SD-x264 Vice News Tonight 2019 04 09 WEBRip x264-eSc New!
6 months and 1 week ago
0217.30 MB3 0