Fosse Verdon S01E05 WEB-DL x264-eSc - Torrenting.com

Fosse Verdon S01E05 WEB-DL x264-eSc

Category: TV/SD-x264| Size: 266.62 MB| Added: 2019-05-09 05:32:37

Download
SubscribeBookmark Report

3 0

Fosse/Verdon (2019)

Biography, Drama, Music
Ratings: 7.9 / 10
Votes: 2,857 People
Fosse/Verdon is a TV mini-series starring Sam Rockwell, Michelle Williams, and Norbert Leo Butz. An inside look at the romantic and creative partnership between influential choreographer/director, Bob Fosse, and Gwen Verdon, one of...
Actors: Sam Rockwell, Michelle Williams, Norbert Leo Butz, Aya Cash, Margaret Qualley, Jake Lacy, Paloma Garcia Lee, Ari Brand, Peter Chursin Jr., Justin Gazzillo, Heather Lang, Morgan Marcell, Nate Corddry, Kelli Barrett, Bianca Marroquin, Rick Holmes, Blake Baumgartner, Juliet Brett, Tessa Grady, Mylinda Hull, Julie Klausner, Chandler Head, Bahiyah Hibah, Adrienne Lovette, Anthony Rosenthal, Matt Wall, Robyn Hurder, Evan Handler, Peter Scolari, Alexis Carra, Christiane Seidel, Paul Reiser, Nicholas Baroudi, Ahmad Simmons, Wayne Wilcox, Jeff Blumenkrantz, Emma Caymares, Sydni Beaudoin, Lindsay Nicole Chambers, Sean Patrick Doyle, Tyler Hanes, Stephen Plunkett, A.J. Holmes, Aaron Krohn, Kaitlynn Edgar, Haylee Roderick, Kyle Brown, Adrian Lee, Haley Fish, Skye Mattox, Lindsay Dunn, Evan Kasprzak, Marina Lazzaretto, J.C. Schuster, Kolton Krouse, Frederic Odgaard, Michael McArthur, Kyle Richard Robinson, Michael Williams, Alex Wong, Corey Snide




Fosse.Verdon.S01E05.WEB-DL.x264-eSc

Plot

Spanning five decades, Fosse/Verdon explores the singular romantic and creative partnership between Bob Fosse and Gwen Verdon. He is a visionary filmmaker and one of the theater's most influential choreographers and directors. She is the greatest Broadway dancer of all time. Only Bob can create the groundbreaking musicals that allow Gwen to showcase her greatness. Only Gwen can realize the unique vision in Bob's head. Together, they will change the face of American entertainment - at a perilous cost.

http://www.tvmaze.com/shows/39802/fosseverdon

Cast

Michelle Williams ... Gwen Verdon
Sam Rockwell ... Bob Fosse
Norbert Leo Butz ... Paddy Chayefsky
Margaret Qualley ... Ann Reinking









Infomation


General
Format : Matroska
Format version : Version 4
File size : 267 MiB
Duration : 1 h 0 min
Overall bit rate : 612 kb/s
Encoded date : UTC 2019-05-08 21:52:31
Writing application : mkvmerge v32.0.0 ('Astral Progressions') 64-bit
Writing library : libebml v1.3.7 + libmatroska v1.5.0

Video
ID : 1
Format : AVC
Format/Info : Advanced Video Codec
Format profile : High@L3
Format settings : CABAC / 4 Ref Frames
Format settings, CABAC : Yes
Format settings, RefFrames : 4 frames
Codec ID : V_MPEG4/ISO/AVC
Duration : 1 h 0 min
Bit rate : 485 kb/s
Width : 720 pixels
Height : 360 pixels
Display aspect ratio : 2.008
Frame rate mode : Constant
Frame rate : 23.976 (24000/1001) FPS
Color space : YUV
Chroma subsampling : 4:2:0
Bit depth : 8 bits
Scan type : Progressive
Bits/(Pixel*Frame) : 0.078
Stream size : 211 MiB (79%)
Writing library : x264 core 157 r2969 d4099dd
Encoding settings : cabac=1 / ref=3 / deblock=1:0:0 / analyse=0x3:0x113 / me=hex / subme=7 / psy=1 / psy_rd=1.00:0.00 / mixed_ref=1 / me_range=16 / chroma_me=1 / trellis=1 / 8x8dct=1 / cqm=0 / deadzone=21,11 / fast_pskip=1 / chroma_qp_offset=-2 / threads=11 / lookahead_threads=1 / sliced_threads=0 / nr=0 / decimate=1 / interlaced=0 / bluray_compat=0 / constrained_intra=0 / bframes=3 / b_pyramid=2 / b_adapt=1 / b_bias=0 / direct=1 / weightb=1 / open_gop=0 / weightp=2 / keyint=250 / keyint_min=23 / scenecut=40 / intra_refresh=0 / rc_lookahead=40 / rc=crf / mbtree=1 / crf=19.0 / qcomp=0.60 / qpmin=0 / qpmax=69 / qpstep=4 / ip_ratio=1.40 / aq=1:1.00
Language : English
Default : Yes
Forced : No

Audio
ID : 2
Format : AAC LC
Format/Info : Advanced Audio Codec Low Complexity
Codec ID : A_AAC-2
Duration : 1 h 0 min
Bit rate : 125 kb/s
Channel(s) : 2 channels
Channel layout : L R
Sampling rate : 48.0 kHz
Frame rate : 46.875 FPS (1024 SPF)
Compression mode : Lossy
Stream size : 54.5 MiB (20%)
Language : English
Default : Yes
Forced : No



[center][/center]
Related Torrents
Type Name Size
TV/x264 HD Fosse Verdon S01E05 720p WEB-DL x264-eSc New!
5 months and 2 weeks ago
0787.25 MB2 0
TV/x264 HD Fosse Verdon S01E05 1080p WEB-DL H264-eSc New!
5 months and 2 weeks ago
02.11 GB2 0
TV/x265 Fosse Verdon S01E05 PROPER 720p HEVC x265-MeGusta New!
5 months and 2 weeks ago
0196.68 MB1 0

<< 1 - 1 >>

hellygog

(VIP)

Thanks for sharing:t21::t53::t18::t62:

<< 1 - 1 >>