Young Guns (1988) 720p BrRip x264 - YIFY - Torrenting.com

Young Guns (1988) 720p BrRip x264 - YIFY

Category: Movies/BluRay | Size: 813.17 MB| Added: 2019-01-08 20:35:39

Download
SubscribeBookmark Report

0 0

Young Guns (1988)

Action, Western
Ratings: 6.9 / 10
Votes: 51,327 People
A group of young gunmen, led by Billy the Kid, become deputies to avenge the murder of the rancher who became their benefactor. But when...
Actors: Emilio Estevez, Kiefer Sutherland, Lou Diamond Phillips, Charlie Sheen, Dermot Mulroney, Casey Siemaszko, Terence Stamp, Jack Palance, Terry O'Quinn, Sharon Thomas Cain, Geoffrey Blake, Alice Carter, Brian Keith, Thomas Callaway, Patrick Wayne



A group of young gunmen, led by Billy the Kid, become deputies to avenge the murder of the rancher who became their benefactor. But when Billy takes their authority too far, they become the hunted.






General
Complete name : D:\Young Guns (1988)\Young.Guns.1988.720p.BluRay.x264.YIFY.mp4
Format : MPEG-4
Format profile : Base Media
Codec ID : isom (isom/avc1)
File size : 813 MiB
Duration : 1 h 46 min
Overall bit rate mode : Variable
Overall bit rate : 1 065 kb/s
Encoded date : UTC 2013-05-21 14:56:30
Tagged date : UTC 2013-05-21 14:56:30

Video
ID : 1
Format : AVC
Format/Info : Advanced Video Codec
Format profile : High@L4
Format settings : CABAC / 5 Ref Frames
Format settings, CABAC : Yes
Format settings, RefFrames : 5 frames
Codec ID : avc1
Codec ID/Info : Advanced Video Coding
Duration : 1 h 46 min
Bit rate : 966 kb/s
Maximum bit rate : 6 106 kb/s
Width : 1 280 pixels
Height : 690 pixels
Display aspect ratio : 1.85:1
Frame rate mode : Constant
Frame rate : 23.976 (24000/1001) FPS
Original frame rate : 23.976 (23976/1000) FPS
Color space : YUV
Chroma subsampling : 4:2:0
Bit depth : 8 bits
Scan type : Progressive
Bits/(Pixel*Frame) : 0.046
Stream size : 737 MiB (91%)
Writing library : x264 core 132 r2 76a5c3a
Encoding settings : cabac=1 / ref=5 / deblock=1:-1:-1 / analyse=0x3:0x133 / me=umh / subme=9 / psy=1 / psy_rd=1.00:0.15 / mixed_ref=1 / me_range=16 / chroma_me=1 / trellis=2 / 8x8dct=1 / cqm=0 / deadzone=21,11 / fast_pskip=1 / chroma_qp_offset=-3 / threads=36 / lookahead_threads=3 / sliced_threads=0 / nr=0 / decimate=1 / interlaced=0 / bluray_compat=0 / constrained_intra=0 / bframes=3 / b_pyramid=2 / b_adapt=2 / b_bias=0 / direct=3 / weightb=1 / open_gop=0 / weightp=2 / keyint=250 / keyint_min=23 / scenecut=40 / intra_refresh=0 / rc_lookahead=60 / rc=2pass / mbtree=1 / bitrate=966 / ratetol=1.0 / qcomp=0.60 / qpmin=0 / qpmax=69 / qpstep=4 / cplxblur=20.0 / qblur=0.5 / ip_ratio=1.40 / aq=1:1.00
Encoded date : UTC 2013-05-21 14:56:30
Tagged date : UTC 2013-05-21 14:56:37
Codec configuration box : avcC

Audio
ID : 2
Format : AAC LC
Format/Info : Advanced Audio Codec Low Complexity
Codec ID : mp4a-40-2
Duration : 1 h 46 min
Bit rate mode : Variable
Bit rate : 96.0 kb/s
Maximum bit rate : 111 kb/s
Channel(s) : 2 channels
Channel layout : L R
Sampling rate : 48.0 kHz
Frame rate : 46.875 FPS (1024 SPF)
Compression mode : Lossy
Stream size : 73.3 MiB (9%)
Language : English
Encoded date : UTC 2013-05-21 14:56:36
Tagged date : UTC 2013-05-21 14:56:37

<< 1 - 2 >>

rollman

(Power User)

Thanks

jersey42

(Power User)

Thank You

<< 1 - 2 >>