Dark Skies (2013) 720p BrRip x264 - YIFY - Torrenting.com

Dark Skies (2013) 720p BrRip x264 - YIFY

Category: Movies/BluRay | Size: 753.80 MB| Added: 2019-01-08 20:13:45

Download
SubscribeBookmark Report

1 0

Dark Skies (2013)

Horror, Sci-Fi, Thriller
Ratings: 6.3 / 10
Votes: 66,615 People
As the Barrett familys peaceful suburban life is rocked by an escalating series of disturbing events, they come to learn that a terrifying and deadly...
Actors: Keri Russell, Josh Hamilton, Dakota Goyo, Kadan Rockett, J.K. Simmons, L.J. Benet, Rich Hutchman, Myndy Crist, Annie Thurman, Jake Brennan, Ron Ostrow, Tom Costello, Marion Kerr, Alyvia Alyn Lind, Josh Stamberg


From the producers of Paranormal Activity, Insidious, and Sinister comes Dark Skies: a supernatural thriller that follows a young family living in the suburbs. As husband and wife Daniel and Lacey Barret witness an escalating series of disturbing events involving their family, their safe and peaceful home quickly unravels. When it becomes clear that the Barret family is being targeted by an unimaginably terrifying and deadly force, Daniel and Lacey take matters in their own hands to solve the mystery of what is after their family.





General
Complete name : D:\Dark Skies (2013)\Dark.Skies.2013.720p.BluRay.x264.YIFY.mp4
Format : MPEG-4
Format profile : Base Media
Codec ID : isom (isom/avc1)
File size : 754 MiB
Duration : 1 h 37 min
Overall bit rate mode : Variable
Overall bit rate : 1 085 kb/s
Encoded date : UTC 2013-05-07 07:11:28
Tagged date : UTC 2013-05-07 07:11:28

Video
ID : 1
Format : AVC
Format/Info : Advanced Video Codec
Format profile : High@L4
Format settings : CABAC / 8 Ref Frames
Format settings, CABAC : Yes
Format settings, RefFrames : 8 frames
Codec ID : avc1
Codec ID/Info : Advanced Video Coding
Duration : 1 h 37 min
Bit rate : 985 kb/s
Maximum bit rate : 10.9 Mb/s
Width : 1 280 pixels
Height : 536 pixels
Display aspect ratio : 2.40:1
Frame rate mode : Constant
Frame rate : 23.976 (24000/1001) FPS
Original frame rate : 23.976 (23976/1000) FPS
Color space : YUV
Chroma subsampling : 4:2:0
Bit depth : 8 bits
Scan type : Progressive
Bits/(Pixel*Frame) : 0.060
Stream size : 684 MiB (91%)
Writing library : x264 core 132 r2 3b1f1f7
Encoding settings : cabac=1 / ref=8 / deblock=1:-1:-1 / analyse=0x3:0x133 / me=umh / subme=9 / psy=1 / psy_rd=1.00:0.15 / mixed_ref=1 / me_range=16 / chroma_me=1 / trellis=2 / 8x8dct=1 / cqm=0 / deadzone=21,11 / fast_pskip=1 / chroma_qp_offset=-3 / threads=12 / lookahead_threads=1 / sliced_threads=0 / nr=0 / decimate=1 / interlaced=0 / bluray_compat=0 / constrained_intra=0 / bframes=3 / b_pyramid=2 / b_adapt=2 / b_bias=0 / direct=3 / weightb=1 / open_gop=0 / weightp=2 / keyint=240 / keyint_min=23 / scenecut=40 / intra_refresh=0 / rc_lookahead=60 / rc=2pass / mbtree=1 / bitrate=985 / ratetol=1.0 / qcomp=0.60 / qpmin=0 / qpmax=69 / qpstep=4 / cplxblur=20.0 / qblur=0.5 / ip_ratio=1.40 / aq=1:1.00
Encoded date : UTC 2013-05-07 07:11:28
Tagged date : UTC 2013-05-07 07:11:31
Codec configuration box : avcC

Audio
ID : 2
Format : AAC LC
Format/Info : Advanced Audio Codec Low Complexity
Codec ID : mp4a-40-2
Duration : 1 h 37 min
Bit rate mode : Variable
Bit rate : 96.0 kb/s
Maximum bit rate : 126 kb/s
Channel(s) : 2 channels
Channel layout : L R
Sampling rate : 48.0 kHz
Frame rate : 46.875 FPS (1024 SPF)
Compression mode : Lossy
Stream size : 66.6 MiB (9%)
Language : English
Encoded date : UTC 2013-05-07 07:11:30
Tagged date : UTC 2013-05-07 07:11:31

<< 1 - 1 >>

rollman

(Power User)

Thanks

<< 1 - 1 >>