Three Amigos (1986) 720p BluRay - Torrenting.com

Three Amigos (1986) 720p BluRay

Category: Movies/BluRay | Size: 895.03 MB| Added: 2019-01-08 19:51:10

Download
SubscribeBookmark Report

2 0

¡Three Amigos! (1986)

Comedy, Western
Ratings: 6.5 / 10
Votes: 63,981 People
¡Three Amigos! is a movie starring Steve Martin, Chevy Chase, and Martin Short. Three actors accept an invitation to a Mexican village to perform their onscreen bandit fighter roles, unaware that it is the real thing.
Actors: Steve Martin, Chevy Chase, Martin Short, Alfonso Arau, Tony Plana, Patrice Martinez, Jorge Cervera Jr., Kai Wulff, Abel Franco, Fred Asparagus, Jon Lovitz, Joe Mantegna, Philip Gordon, Michael Wren, Gene Hartline




Three unemployed actors accept an invitation to a Mexican village to replay their bandit fighter roles, unaware that it is the real thing.





General
Unique ID : 232703641563359754053472938059243269793 (0xAF1117554F741CA98AEC205357E92EA1)
Complete name : D:\Three Amigos (1986) 720p.BRrip.Sujaidr\Three Amigos (1986) 720p.BRrip.Sujaidr.mkv
Format : Matroska
Format version : Version 2
File size : 895 MiB
Duration : 1 h 42 min
Overall bit rate : 1 217 kb/s
Encoded date : UTC 2013-11-07 05:22:31
Writing application : mkvmerge v6.2.0 ('Promised Land') built on Apr 28 2013 12:22:01
Writing library : libebml v1.3.0 + libmatroska v1.4.0

Video
ID : 1
Format : AVC
Format/Info : Advanced Video Codec
Format profile : High@L4.1
Format settings : CABAC / 4 Ref Frames
Format settings, CABAC : Yes
Format settings, RefFrames : 4 frames
Codec ID : V_MPEG4/ISO/AVC
Duration : 1 h 42 min
Bit rate : 1 092 kb/s
Width : 1 280 pixels
Height : 688 pixels
Display aspect ratio : 1.85:1
Frame rate mode : Constant
Frame rate : 23.976 (24000/1001) FPS
Color space : YUV
Chroma subsampling : 4:2:0
Bit depth : 8 bits
Scan type : Progressive
Bits/(Pixel*Frame) : 0.052
Stream size : 783 MiB (87%)
Writing library : x264 core 133 r2334 a3ac64b
Encoding settings : cabac=1 / ref=5 / deblock=1:-1:-1 / analyse=0x3:0x113 / me=umh / subme=8 / psy=1 / psy_rd=1.00:0.06 / mixed_ref=1 / me_range=16 / chroma_me=1 / trellis=1 / 8x8dct=1 / cqm=0 / deadzone=21,11 / fast_pskip=1 / chroma_qp_offset=-3 / threads=6 / lookahead_threads=1 / sliced_threads=0 / nr=0 / decimate=1 / interlaced=0 / bluray_compat=0 / constrained_intra=0 / bframes=3 / b_pyramid=1 / b_adapt=2 / b_bias=0 / direct=3 / weightb=1 / open_gop=0 / weightp=2 / keyint=240 / keyint_min=23 / scenecut=40 / intra_refresh=0 / rc_lookahead=50 / rc=2pass / mbtree=1 / bitrate=1092 / ratetol=1.0 / qcomp=0.60 / qpmin=10 / qpmax=51 / qpstep=4 / cplxblur=20.0 / qblur=0.5 / vbv_maxrate=2000 / vbv_bufsize=2000 / nal_hrd=none / ip_ratio=1.40 / aq=1:1.00
Default : Yes
Forced : No

Audio
ID : 2
Format : AC-3
Format/Info : Audio Coding 3
Commercial name : Dolby Digital
Codec ID : A_AC3
Duration : 1 h 42 min
Bit rate mode : Constant
Bit rate : 128 kb/s
Channel(s) : 2 channels
Channel layout : L R
Sampling rate : 48.0 kHz
Frame rate : 31.250 FPS (1536 SPF)
Bit depth : 16 bits
Compression mode : Lossy
Stream size : 94.1 MiB (11%)
Service kind : Complete Main
Default : Yes
Forced : No
Related Torrents
Type Name Size
Movies/BluRay Three Amigos (1986) 1080p BluRay New!
10 months and 1 week ago
02.99 GB3 0

<< 1 - 2 >>

markus21

(User)

:t338:

drifter747

(Power User)

Thanks

<< 1 - 2 >>