Vice News Tonight 2019 01 07 WEBRip x264-eSc - Torrenting.com

Vice News Tonight 2019 01 07 WEBRip x264-eSc

Category: TV/SD-x264| Size: 164.88 MB| Added: 2019-01-08 02:44:37

Download
SubscribeBookmark Report

2 0

Vice News Tonight (2016)

Ratings: 8.4 / 10
Votes: 337 People
Vice News Tonight is a TV series starring Arielle Duhaime-Ross, Isobel Yeung, and Michael C. Moynihan. A nightly news show Monday through Friday. Discusses current global issues and various news topics.
Actors: Arielle Duhaime-Ross




Vice.News.Tonight.2019.01.07.WEBRip.x264-eSc

Plot

"Vice News Tonight" which premieres Oct. 10 (weeknights, 7:30 ET/PT) as the network's first daily series, won't just rehash the major stories of the day for those playing catch-up. Instead, the half-hour program assumes that viewers have already read the headlines on their phones and laptops, and want a more well-rounded, in-depth look at what's happening around the world

http://www.tvmaze.com/shows/21108/vice-news-tonight

Cast

Antonia Hylton ... Correspondent & Producer
Ben Anderson ... Correspondent & Producer
Arielle Duhaine-Ross ... Correspondent
Bijan Stephen ... Correspondent









Infomation


General
Format : Matroska
Format version : Version 4
File size : 165 MiB
Duration : 23 min 22 s
Overall bit rate : 986 kb/s
Encoded date : UTC 2019-01-08 02:03:26
Writing application : mkvmerge v22.0.0 ('At The End Of The World') 64-bit
Writing library : libebml v1.3.5 + libmatroska v1.4.8

Video
ID : 1
Format : AVC
Format/Info : Advanced Video Codec
Format profile : High@L3
Format settings : CABAC / 4 Ref Frames
Format settings, CABAC : Yes
Format settings, RefFrames : 4 frames
Codec ID : V_MPEG4/ISO/AVC
Duration : 23 min 22 s
Bit rate : 855 kb/s
Width : 720 pixels
Height : 480 pixels
Display aspect ratio : 16:9
Frame rate mode : Constant
Frame rate : 29.970 (30000/1001) FPS
Standard : NTSC
Color space : YUV
Chroma subsampling : 4:2:0
Bit depth : 8 bits
Scan type : Progressive
Bits/(Pixel*Frame) : 0.083
Stream size : 143 MiB (87%)
Writing library : x264 core 157 r2935 545de2f
Encoding settings : cabac=1 / ref=3 / deblock=1:0:0 / analyse=0x3:0x113 / me=hex / subme=7 / psy=1 / psy_rd=1.00:0.00 / mixed_ref=1 / me_range=16 / chroma_me=1 / trellis=1 / 8x8dct=1 / cqm=0 / deadzone=21,11 / fast_pskip=1 / chroma_qp_offset=-2 / threads=12 / lookahead_threads=2 / sliced_threads=0 / nr=0 / decimate=1 / interlaced=0 / bluray_compat=0 / constrained_intra=0 / bframes=3 / b_pyramid=2 / b_adapt=1 / b_bias=0 / direct=1 / weightb=1 / open_gop=0 / weightp=2 / keyint=250 / keyint_min=25 / scenecut=40 / intra_refresh=0 / rc_lookahead=40 / rc=crf / mbtree=1 / crf=19.0 / qcomp=0.60 / qpmin=0 / qpmax=69 / qpstep=4 / ip_ratio=1.40 / aq=1:1.00
Default : Yes
Forced : No

Audio
ID : 2
Format : AAC LC
Format/Info : Advanced Audio Codec Low Complexity
Codec ID : A_AAC-2
Duration : 23 min 22 s
Bit rate : 128 kb/s
Channel(s) : 2 channels
Channel layout : L R
Sampling rate : 48.0 kHz
Frame rate : 46.875 FPS (1024 SPF)
Compression mode : Lossy
Delay relative to video : -8 ms
Stream size : 21.5 MiB (13%)
Language : English
Default : Yes
Forced : No



[center][/center]
Related Torrents
Type Name Size
TV/SD-x264 Vice News Tonight 2019 04 17 WEBRip x264-eSc New!
8 months and 1 day ago
0207.69 MB2 0
TV/SD-x264 Vice News Tonight 2019 01 09 WEBRip x264-eSc New!
11 months and 1 week ago
0166.30 MB2 0
TV/SD-x264 Vice News Tonight 2018 08 08 WEBRip x264-eSc New!
1 year and 4 months ago
0234.57 MB2 0
TV/SD-x264 Vice News Tonight 2018 10 09 WEBRip x264-eSc New!
1 year and 2 months ago
0175.69 MB2 0
TV/SD-x264 Vice News Tonight 2018 08 16 WEBRip x264-eSc New!
1 year and 4 months ago
0221.55 MB2 0