12 Strong 2018 UHDBDRip MKV Passthrough Multi Multi H265-d3g - Torrenting.com

12 Strong 2018 UHDBDRip MKV Passthrough Multi Multi H265-d3g

[FreeLeech]

Category: Movies/x265| Size: 50.63 GB| Added: 2018-07-22 19:10:58

Download
SubscribeBookmark Report

1 1

12 Strong (2018)

Action, Drama, History, War
Ratings: 6.6 / 10
Votes: 52,827 People
12 Strong is a movie starring Chris Hemsworth, Michael Shannon, and Michael Peña. 12 Strong tells the story of the first Special Forces team deployed to Afghanistan after 9/11; under the leadership of a new captain, the team must...
Actors: Chris Hemsworth, Michael Shannon, Michael Peña, Navid Negahban, Trevante Rhodes, Geoff Stults, Thad Luckinbill, Austin Hébert, Austin Stowell, Ben O'Toole, Kenneth Miller, Kenny Sheard, Jack Kesy, Rob Riggle, William Fichtner




12 Strong 2018 UHDBDRip MKV Passthrough Multi Multi H265-d3g



In the wake of the September 11 attacks, Captain Mitch Nelson leads a US Special Forces team into Afghanistan for an extremely dangerous mission. Once there, the soldiers develop an uneasy partnership with the Northern Alliance to take down the Taliban and its al-Qaida allies. Outgunned and outnumbered, Nelson and his forces face overwhelming odds in a fight against a ruthless enemy that takes no prisoners.
Release date: January 19, 2018 (USA)

IMDb: https://www.imdb.com/title/tt1413492/




======================

======================

======================




Source : UHDBDRaw


Format : Matroska
Format version : Version 2
File size : 50.6 GiB
Duration : 2 h 10 min
Overall bit rate : 55.5 Mb/s
Movie name : 12 Strong 2018 UHDBDRip 2160p Multi Multi H265-d3g
Encoded date : UTC 2018-07-21 23:32:39
Writing application : DVDFab 10.0.9.2
Writing library : libebml v1.3.4 + libmatroska v1.4.5

Video
ID : 1
Format : HEVC
Format/Info : High Efficiency Video Coding
Commercial name : HDR10
Format profile : Main 10@L5.1@High
Codec ID : V_MPEGH/ISO/HEVC
Duration : 2 h 10 min
Bit rate : 46.7 Mb/s
Width : 3 840 pixels
Height : 2 160 pixels
Display aspect ratio : 16:9
Frame rate mode : Constant
Frame rate : 24.000 FPS
Color space : YUV
Chroma subsampling : 4:2:0 (Type 2)
Bit depth : 10 bits
Bits/(Pixel*Frame) : 0.235
Stream size : 42.6 GiB (84%)
Default : Yes
Forced : No
Color range : Limited
Color primaries : BT.2020
Transfer characteristics : PQ
Matrix coefficients : BT.2020 non-constant
Mastering display color primaries : BT.709
Mastering display luminance : min: 0.0050 cd/m2, max: 1000 cd/m2
Maximum Content Light Level : 764 cd/m2
Maximum Frame-Average Light Level : 374 cd/m2

Audio #1
ID : 2
Format : DTS
Format/Info : Digital Theater Systems
Format profile : MA / Core
Codec ID : A_DTS
Duration : 2 h 10 min
Bit rate mode : Variable / Constant
Bit rate : 2 855 kb/s / 1 509 kb/s
Channel(s) : 8 channels / 6 channels
Channel positions : Front: L C R, Side: L R, Back: L R, LFE / Front: L C R, Side: L R, LFE
Sampling rate : 48.0 kHz
Frame rate : 93.750 FPS (512 SPF)
Bit depth : 16 bits
Compression mode : Lossless / Lossy
Stream size : 2.61 GiB (5%)
Language : English
Default : Yes
Forced : No

Audio #2
ID : 3
Format : DTS
Format/Info : Digital Theater Systems
Format profile : MA / Core
Codec ID : A_DTS
Duration : 2 h 10 min
Bit rate mode : Variable / Constant
Bit rate : 2 853 kb/s / 1 509 kb/s
Channel(s) : 8 channels / 6 channels
Channel positions : Front: L C R, Side: L R, Back: L R, LFE / Front: L C R, Side: L R, LFE
Sampling rate : 48.0 kHz
Frame rate : 93.750 FPS (512 SPF)
Bit depth : 16 bits
Compression mode : Lossless / Lossy
Stream size : 2.60 GiB (5%)
Language : German
Default : No
Forced : No

Audio #3
ID : 4
Format : DTS
Format/Info : Digital Theater Systems
Codec ID : A_DTS
Duration : 2 h 10 min
Bit rate mode : Constant
Bit rate : 1 509 kb/s
Channel(s) : 6 channels
Channel positions : Front: L C R, Side: L R, LFE
Sampling rate : 48.0 kHz
Frame rate : 93.750 FPS (512 SPF)
Bit depth : 16 bits
Compression mode : Lossy
Stream size : 1.38 GiB (3%)
Language : German
Default : No
Forced : No

Audio #4
ID : 5
Format : DTS
Format/Info : Digital Theater Systems
Codec ID : A_DTS
Duration : 2 h 10 min
Bit rate mode : Constant
Bit rate : 1 509 kb/s
Channel(s) : 6 channels
Channel positions : Front: L C R, Side: L R, LFE
Sampling rate : 48.0 kHz
Frame rate : 93.750 FPS (512 SPF)
Bit depth : 16 bits
Compression mode : Lossy
Stream size : 1.38 GiB (3%)
Language : English
Default : No
Forced : No

Text #1
ID : 6
Format : VobSub
Codec ID : S_VOBSUB
Codec ID/Info : Picture based subtitle format used on DVDs
Duration : 2 h 8 min
Bit rate : 8 554 b/s
Count of elements : 1497
Stream size : 7.87 MiB (0%)
Language : German
Default : No
Forced : No

Text #2
ID : 7
Format : VobSub
Codec ID : S_VOBSUB
Codec ID/Info : Picture based subtitle format used on DVDs
Duration : 1 h 42 min
Bit rate : 260 b/s
Count of elements : 51
Stream size : 196 KiB (0%)
Language : German
Default : No
Forced : No

Text #3
ID : 8
Format : VobSub
Codec ID : S_VOBSUB
Codec ID/Info : Picture based subtitle format used on DVDs
Duration : 2 h 0 min
Bit rate : 588 b/s
Count of elements : 87
Stream size : 519 KiB (0%)
Language : English
Default : No
Forced : No








All releases encoded with 2 passes and seeding from 2Gbps server.

Enjoy!

Huge thanks and greetz fly out to "fate385" for all the tech support he provides.








Intel(R) Core(TM) i7-6950X @3.00GHZ OC (10 core)

Installed Memory (RAM): 128GB



Related Torrents
Type Name Size
Movies 12 Strong 2018 HDRip XviD AC3-EVO New!
1 year and 5 months ago
01.52 GB23 0
Movies 12 Strong 2018 1080p WEB-DL H264 AC3-EVO New!
1 year and 5 months ago
04.46 GB8 0
Movies/x265 12 Strong 2018 BluRay 10Bit 1080p DD5 1 H265-d3g New!
1 year and 5 months ago
02.66 GB2 0
Movies 12 Strong 2018 BRRip XviD AC3-EVO New!
1 year and 5 months ago
01.40 GB2 0
Movies 12 Strong 2018 WEBRiP AC3 x264-LEGi0N New!
1 year and 5 months ago
01.57 GB1 0

<< 1 - 2 >>

sandyp

(VIP)

click  :t228:  :t233:  :t233:

Cosmo

(Power User)

:t361: thanks Again

<< 1 - 2 >>