The 15-17 to Paris 2018 BDRip 10Bit 1080p DD5 1 H265-d3g - Torrenting.com

The 15-17 to Paris 2018 BDRip 10Bit 1080p DD5 1 H265-d3g

Category: Movies/x265| Size: 2.19 GB| Added: 2018-06-03 11:44:03

Download
SubscribeBookmark Report

0 0

The 15:17 to Paris (2018)

Biography, Drama, Thriller
Ratings: 5.2 / 10
Votes: 23,414 People
The 15:17 to Paris is a movie starring Alek Skarlatos, Anthony Sadler, and Spencer Stone. Americans discover a terrorist plot on a Paris-bound train.
Actors: Ray Corasani, Alek Skarlatos, Anthony Sadler, Spencer Stone, Judy Greer, Jenna Fischer, Irene White, William Jennings, Bryce Gheisar, Stephen Matthew Smith, P.J. Byrne, Paul-Mikél Williams, Thomas Lennon, Tony Hale, Grant Weaver




The 15-17 to Paris 2018 BDRip 10Bit 1080p DD5.1 H265-d3g



In the early evening of August 21, 2015, the world watched in stunned silence as the media reported a thwarted terrorist attack on Thalys train #9364 bound for Paris--an attempt prevented by three courageous young Americans traveling through Europe. The film follows the course of the friends' lives, from the struggles of childhood through finding their footing in life, to the series of unlikely events leading up to the attack. Throughout the harrowing ordeal, their friendship never wavers, making it their greatest weapon and allowing them to save the lives of the more than 500 passengers on board.

IMDb: https://www.imdb.com/title/tt6802308/




======================

======================

======================

======================



Source: Full BluRay BD-Raw

Format : Matroska
Format version : Version 2
File size : 2.19 GiB
Duration : 1 h 33 min
Overall bit rate : 3 338 kb/s
Movie name : The 15-17 to Paris 2018 BDRip 10Bit 1080p DD5.1 H265-d3g
Encoded date : UTC 2018-06-03 06:20:37
Writing application : DVDFab 10.0.9.5
Writing library : libebml v1.3.4 + libmatroska v1.4.5

Video
ID : 1
Format : HEVC
Format/Info : High Efficiency Video Coding
Format profile : Main 10@L4@Main
Codec ID : V_MPEGH/ISO/HEVC
Duration : 1 h 33 min
Bit rate : 2 876 kb/s
Width : 1 920 pixels
Height : 804 pixels
Display aspect ratio : 2.40:1
Frame rate mode : Constant
Frame rate : 23.976 (24000/1001) FPS
Color space : YUV
Chroma subsampling : 4:2:0
Bit depth : 10 bits
Bits/(Pixel*Frame) : 0.078
Stream size : 1.89 GiB (86%)
Default : Yes
Forced : No
Color range : Limited
Color primaries : BT.709
Transfer characteristics : BT.709
Matrix coefficients : BT.709

Audio
ID : 2
Format : AC-3
Format/Info : Audio Coding 3
Codec ID : A_AC3
Duration : 1 h 33 min
Bit rate mode : Constant
Bit rate : 448 kb/s
Channel(s) : 6 channels
Channel positions : Front: L C R, Side: L R, LFE
Sampling rate : 48.0 kHz
Frame rate : 31.250 FPS (1536 SPF)
Bit depth : 16 bits
Compression mode : Lossy
Stream size : 301 MiB (13%)
Language : English
Service kind : Complete Main
Default : Yes
Forced : No

Text
ID : 3
Format : VobSub
Codec ID : S_VOBSUB
Codec ID/Info : Picture based subtitle format used on DVDs
Duration : 1 h 33 min
Bit rate : 12.3 kb/s
Count of elements : 1698
Stream size : 8.25 MiB (0%)
Language : English
Default : No
Forced : No









Enjoy!

Huge thanks and greetz fly out to "fate385" for all the tech support he provides.






Related Torrents
Type Name Size
Movies The 15 17 to Paris 2018 HDRip XviD AC3-EVO New!
1 year and 5 months ago
01.41 GB4 0
Movies The 15 17 to Paris 2018 720p WEB-DL H264 AC3-EVO New!
1 year and 5 months ago
02.90 GB3 0
Movies The 15 17 to Paris 2018 BRRip XviD AC3-EVO New!
1 year and 5 months ago
01.42 GB2 0
Movies The 15 17 to Paris 2018 1080p WEB-DL H264 AC3-EVO New!
1 year and 5 months ago
03.23 GB0 0

<< 1 - 1 >>

cheryl2x

(Power User)

Thanks!

<< 1 - 1 >>