Kaleidoscope 2016 1080p BRRip x264 AC3-eSc - Torrenting.com

Kaleidoscope 2016 1080p BRRip x264 AC3-eSc

Category: Movies/BluRay | Size: 1.80 GB| Added: 2018-05-15 02:21:03

Download
SubscribeBookmark Report

1 0

Kaleidoscope (2017)

Ratings: 5.7 / 10
Votes: 665 People
A psychological thriller about the destructive relationship between a middle-aged man and his mother.
Actors: Anne Reid, Sinead Matthews, Deborah Findlay, Karl Johnson, Toby Jones, Joseph Kloska, Tim Newton, Cecilia Noble, Clare Perkins, Frederick Schmidt, Manjinder Virk, Andy Williams




Kaleidoscope.2016.1080p.BRRip.x264.AC3-eSc

Plot

A psychological thriller about the destructive relationship between a middle-aged man and his mother.

https://www.imdb.com/title/tt5634088/

Cast

Toby Jones ... Carl
Anne Reid ... Aileen
Deborah Findlay ... Maureen
Sinead Matthews ... Abby













Infomation


General
Format : MPEG-4
Format profile : Base Media / Version 2
Codec ID : mp42 (isom/iso2/avc1/mp41)
File size : 1.80 GiB
Duration : 1 h 39 min
Overall bit rate : 2 589 kb/s
Encoded date : UTC 2018-05-03 21:06:17
Tagged date : UTC 2018-05-03 22:57:37

Video
ID : 1
Format : AVC
Format/Info : Advanced Video Codec
Format profile : High@L4.1
Format settings : CABAC / 4 Ref Frames
Format settings, CABAC : Yes
Format settings, RefFrames : 4 frames
Codec ID : avc1
Codec ID/Info : Advanced Video Coding
Duration : 1 h 39 min
Bit rate : 2 200 kb/s
Width : 1 920 pixels
Height : 1 036 pixels
Display aspect ratio : 1.85:1
Frame rate mode : Variable
Frame rate : 23.976 (24000/1001) FPS
Minimum frame rate : 23.974 FPS
Maximum frame rate : 23.981 FPS
Color space : YUV
Chroma subsampling : 4:2:0
Bit depth : 8 bits
Scan type : Progressive
Bits/(Pixel*Frame) : 0.046
Stream size : 1.53 GiB (85%)
Writing library : x264 core 142 r2479 dd79a61
Encoding settings : cabac=1 / ref=3 / deblock=1:-1:-1 / analyse=0x3:0x113 / me=hex / subme=7 / psy=1 / psy_rd=1.00:0.15 / mixed_ref=1 / me_range=16 / chroma_me=1 / trellis=1 / 8x8dct=1 / cqm=0 / deadzone=21,11 / fast_pskip=1 / chroma_qp_offset=-3 / threads=12 / lookahead_threads=2 / sliced_threads=0 / nr=0 / decimate=1 / interlaced=0 / bluray_compat=0 / constrained_intra=0 / bframes=3 / b_pyramid=2 / b_adapt=1 / b_bias=0 / direct=1 / weightb=1 / open_gop=0 / weightp=2 / keyint=240 / keyint_min=24 / scenecut=40 / intra_refresh=0 / rc_lookahead=40 / rc=2pass / mbtree=1 / bitrate=2200 / ratetol=1.0 / qcomp=0.60 / qpmin=0 / qpmax=69 / qpstep=4 / cplxblur=20.0 / qblur=0.5 / vbv_maxrate=62500 / vbv_bufsize=78125 / nal_hrd=none / filler=0 / ip_ratio=1.40 / aq=1:1.00
Language : English
Encoded date : UTC 2018-05-03 21:06:17
Tagged date : UTC 2018-05-03 21:06:17
Color range : Limited
Color primaries : BT.709
Transfer characteristics : BT.709
Matrix coefficients : BT.709
Menus : 4

Audio
ID : 2
Format : AC-3
Format/Info : Audio Coding 3
Codec ID : ac-3
Duration : 1 h 39 min
Bit rate mode : Constant
Bit rate : 384 kb/s
Channel(s) : 6 channels
Channel positions : Front: L C R, Side: L R, LFE
Sampling rate : 44.1 kHz
Frame rate : 28.711 FPS (1536 SPF)
Bit depth : 16 bits
Compression mode : Lossy
Stream size : 273 MiB (15%)
Title : Surround / Surround
Service kind : Complete Main
Default : Yes
Alternate group : 1
Encoded date : UTC 2018-05-03 21:06:17
Tagged date : UTC 2018-05-03 21:06:17

Menu
ID : 4
Codec ID : text
Duration : 1 h 39 min
Encoded date : UTC 2018-05-03 22:57:37
Tagged date : UTC 2018-05-03 22:57:37
Menu For : 1
00:00:00.000 : Chapter 1
00:11:44.036 : Chapter 2
00:22:10.287 : Chapter 3
00:29:19.799 : Chapter 4
00:37:44.428 : Chapter 5
00:45:07.246 : Chapter 6
00:52:03.328 : Chapter 7
01:00:17.447 : Chapter 8
01:05:47.485 : Chapter 9
01:12:11.785 : Chapter 10
01:19:16.418 : Chapter 11
01:29:53.388 : Chapter 12
01:39:29.964 : Chapter 13
Bit rate mode : VBR



[center][/center]
Related Torrents
Type Name Size
Movies Kaleidoscope 2016 1080p NF WEB-DL DD5 1 x264-NTG New!
1 year and 5 months ago
02.36 GB0 0