Bull S01-02 WEBRip 1080p DD5 1 H265-d3g - Torrenting.com

Bull S01-02 WEBRip 1080p DD5 1 H265-d3g

[FreeLeech]

Category: TV/Packs| Size: 44.50 GB| Added: 2018-05-14 19:02:52

Download
SubscribeBookmark Report

3 0

Bull (2016)

Comedy, Crime, Drama
Ratings: 6.9 / 10
Votes: 12,688 People
Bull is a TV series starring Michael Weatherly, Freddy Rodríguez, and Geneva Carr. Brilliant, brash, and charming, Dr. Bull is the ultimate puppet master as he combines psychology, human intuition, and high-tech data to learn what...
Actors: Michael Weatherly, Freddy Rodríguez, Geneva Carr, Jaime Lee Kirchner, Chris Jackson, Annabelle Attanasio




Bull S01-02 WEBRip 1080p DD5.1 H265-d3g



Dr Jason Bull is the charming and cocky founder of successful trial consulting firm Trial Analysis Corporation, where he and his team of experts employ psychology, human intuition and high-tech data to understand jurors, lawyers, witnesses and defendants, and construct effective narratives to help their clients win. Bull's team include his brother-in-law Benny, neurolinguistics expert Marissa, former detective Danny, hacker Cable, and Chunk, who helps perfect clients' appearances for trial. `Bull' is inspired by the early career of Dr Phil McGraw, who also serves as an executive producer.

IMDb: https://www.imdb.com/title/tt5827228/




======================

======================

======================

======================

======================

======================



Source: WEB-DL

Format : Matroska
Format version : Version 2
File size : 1 020 MiB
Duration : 43 min 36 s
Overall bit rate : 3 268 kb/s
Movie name : Bull.S01E01.The.Necklace.WEBRip.1080p.DD5.1.H265-d3g
Encoded date : UTC 2018-05-10 16:41:07
Writing application : DVDFab 10.0.9.2
Writing library : libebml v1.3.4 + libmatroska v1.4.5

Video
ID : 1
Format : HEVC
Format/Info : High Efficiency Video Coding
Format profile : Main@L4@Main
Codec ID : V_MPEGH/ISO/HEVC
Duration : 43 min 35 s
Bit rate : 2 804 kb/s
Width : 1 920 pixels
Height : 1 080 pixels
Display aspect ratio : 16:9
Frame rate mode : Constant
Frame rate : 23.976 (24000/1001) FPS
Color space : YUV
Chroma subsampling : 4:2:0
Bit depth : 8 bits
Bits/(Pixel*Frame) : 0.056
Stream size : 874 MiB (86%)
Default : Yes
Forced : No
Color range : Limited
Color primaries : BT.709
Transfer characteristics : BT.709
Matrix coefficients : BT.709

Audio
ID : 2
Format : AC-3
Format/Info : Audio Coding 3
Codec ID : A_AC3
Duration : 43 min 36 s
Bit rate mode : Constant
Bit rate : 448 kb/s
Channel(s) : 6 channels
Channel positions : Front: L C R, Side: L R, LFE
Sampling rate : 48.0 kHz
Frame rate : 31.250 FPS (1536 SPF)
Bit depth : 16 bits
Compression mode : Lossy
Stream size : 140 MiB (14%)
Language : English
Service kind : Complete Main
Default : Yes
Forced : No

Text
ID : 3
Format : VobSub
Codec ID : S_VOBSUB
Codec ID/Info : Picture based subtitle format used on DVDs
Duration : 42 min 49 s
Bit rate : 16.0 kb/s
Count of elements : 988
Stream size : 4.91 MiB (0%)
Language : English
Default : No
Forced : No









Enjoy!

Huge thanks and greetz fly out to "fate385" for all the tech support he provides.






Related Torrents
Type Name Size
TV/x264 HD Bull 2016 S04E09 720p HDTV x264-KILLERS New!
1 week and 3 days ago
0685.11 MB20 2
TV/SD-x264 Bull 2016 S04E07 XviD-AFG New!
1 month and 1 day ago
0280.10 MB15 1
TV/SD-x264 Bull 2016 S04E09 480p x264-mSD New!
1 week and 3 days ago
0180.13 MB14 1
TV/SD-x264 Bull 2016 S04E08 XviD-AFG New!
2 weeks and 3 days ago
0301.64 MB14 1
TV/SD-x264 Bull 2016 S04E09 AAC MP4-Mobile New!
1 week and 3 days ago
0111.59 MB13 0

<< 1 - 2 >>

Softstring

(Power User)

Many Thanks......:t70:

JoJo2017

(Power User)

:t222:

<< 1 - 2 >>