How the West Was Won 1962 BDRip 10Bit 1080p DD5 1 H265-d3g - Torrenting.com

How the West Was Won 1962 BDRip 10Bit 1080p DD5 1 H265-d3g

Category: Movies/x265| Size: 4.04 GB| Added: 2018-05-14 17:56:35

Download
SubscribeBookmark Report

1 0

How the West Was Won (1962)

Ratings: 7.1 / 10
Votes: 17,197 People
A family saga covering several decades of Westward expansion in the nineteenth century - including the Gold Rush, the Civil War, and the building...
Actors: Carroll Baker, Lee J. Cobb, Henry Fonda, Carolyn Jones, Karl Malden, Gregory Peck, George Peppard, Robert Preston, Debbie Reynolds, James Stewart, Eli Wallach, John Wayne, Richard Widmark, Brigid Bazlen, Walter Brennan




How the West Was Won 1962 BDRip 10Bit 1080p DD5.1 H265-d3g



Setting off on a journey to the west in the 1830s, the Prescott family run into a man named Linus (James Stewart), who helps them fight off a pack of thieves. Linus then marries daughter Eve Prescott (Carroll Baker), and 30 years later goes off to fight in the Civil War with their son, with bloody results. Eve's sister, Lily (Debbie Reynolds), heads further west and has adventures with a professional gambler (Gregory Peck), stretching all the way to San Francisco and into the 1880s.
Release date: February 20, 1963 (USA)

IMDb: https://www.imdb.com/title/tt0056085/




======================

======================

======================

======================



Source: Full BluRay BD-Raw

Format : Matroska
Format version : Version 2
File size : 4.04 GiB
Duration : 2 h 44 min
Overall bit rate : 3 515 kb/s
Movie name : How the West Was Won 1962 BDRip 10Bit 1080p DD5.1 H265-d3g
Encoded date : UTC 2018-05-10 14:49:38
Writing application : DVDFab 10.0.9.0
Writing library : libebml v1.3.4 + libmatroska v1.4.5

Video
ID : 1
Format : HEVC
Format/Info : High Efficiency Video Coding
Format profile : Main 10@L4@Main
Codec ID : V_MPEGH/ISO/HEVC
Duration : 2 h 44 min
Bit rate : 3 056 kb/s
Width : 1 920 pixels
Height : 660 pixels
Display aspect ratio : 2.909
Frame rate mode : Constant
Frame rate : 23.976 (24000/1001) FPS
Color space : YUV
Chroma subsampling : 4:2:0
Bit depth : 10 bits
Bits/(Pixel*Frame) : 0.101
Stream size : 3.52 GiB (87%)
Default : Yes
Forced : No
Color range : Limited
Color primaries : BT.709
Transfer characteristics : BT.709
Matrix coefficients : BT.709

Audio
ID : 2
Format : AC-3
Format/Info : Audio Coding 3
Codec ID : A_AC3
Duration : 2 h 44 min
Bit rate mode : Constant
Bit rate : 448 kb/s
Channel(s) : 6 channels
Channel positions : Front: L C R, Side: L R, LFE
Sampling rate : 48.0 kHz
Frame rate : 31.250 FPS (1536 SPF)
Bit depth : 16 bits
Compression mode : Lossy
Stream size : 528 MiB (13%)
Language : English
Service kind : Complete Main
Default : Yes
Forced : No

Text
ID : 3
Format : VobSub
Codec ID : S_VOBSUB
Codec ID/Info : Picture based subtitle format used on DVDs
Duration : 2 h 36 min
Bit rate : 8 920 b/s
Count of elements : 1643
Stream size : 9.99 MiB (0%)
Language : English
Default : No
Forced : No








Enjoy!

Huge thanks and greetz fly out to "fate385" for all the tech support he provides.






<< 1 - 1 >>

serf46

(Power User)

Thanks

<< 1 - 1 >>