Red Sparrow 2018 BDRip 10Bit 1080p Multi-Multi H265-d3g - Torrenting.com

Red Sparrow 2018 BDRip 10Bit 1080p Multi-Multi H265-d3g

[FreeLeech]

Category: Movies/x265| Size: 12.27 GB| Added: 2018-05-14 17:42:47

Download
SubscribeBookmark Report

3 0

Red Sparrow (2018)

Action, Drama, Thriller
Ratings: 6.6 / 10
Votes: 146,549 People
Ballerina Dominika Egorova is recruited to Sparrow School, a Russian intelligence service where she is forced to use her body as a weapon....
Actors: Jennifer Lawrence, Joel Edgerton, Matthias Schoenaerts, Charlotte Rampling, Mary-Louise Parker, Ciarán Hinds, Joely Richardson, Bill Camp, Jeremy Irons, Thekla Reuten, Douglas Hodge, Sakina Jaffrey, Sergei Polunin, Sasha Frolova, Sebastian Hülk



Red Sparrow 2018 BDRip 10Bit 1080p Multi-Multi H265-d3g



Prima ballerina Dominika Egorova faces a bleak and uncertain future after she suffers an injury that ends her career. She soon turns to Sparrow School, a secret intelligence service that trains exceptional young people to use their minds and bodies as weapons. Egorova emerges as the most dangerous Sparrow after completing the sadistic training process. As she comes to terms with her new abilities, Dominika meets a CIA agent who tries to convince her that he is the only person she can trust.
Release date: March 2, 2018 (USA)

IMDb: https://www.imdb.com/title/tt2873282/




======================

======================

======================

======================



Source: BDRip

Format : Matroska
Format version : Version 2
File size : 12.3 GiB
Duration : 2 h 20 min
Overall bit rate : 12.5 Mb/s
Movie name : Red Sparrow 2018 BDRip 10Bit 1080p Multi-Multi H265-d3g
Encoded date : UTC 2018-05-13 14:35:46
Writing application : DVDFab 10.0.9.2
Writing library : libebml v1.3.4 + libmatroska v1.4.5

Video
ID : 1
Format : HEVC
Format/Info : High Efficiency Video Coding
Format profile : Main 10@L4@High
Codec ID : V_MPEGH/ISO/HEVC
Duration : 2 h 20 min
Bit rate : 6 742 kb/s
Width : 1 920 pixels
Height : 800 pixels
Display aspect ratio : 2.40:1
Frame rate mode : Constant
Frame rate : 23.976 (24000/1001) FPS
Color space : YUV
Chroma subsampling : 4:2:0
Bit depth : 10 bits
Bits/(Pixel*Frame) : 0.183
Stream size : 6.60 GiB (54%)
Default : Yes
Forced : No
Color range : Limited
Color primaries : BT.709
Transfer characteristics : BT.709
Matrix coefficients : BT.709

Audio #1
ID : 2
Format : DTS
Format/Info : Digital Theater Systems
Format profile : MA / ES Matrix / Core
Codec ID : A_DTS
Duration : 2 h 20 min
Bit rate mode : Variable / Constant / Constant
Bit rate : 4 399 kb/s / 1 509 kb/s / 1 509 kb/s
Channel(s) : 8 channels / 7 channels / 6 channels
Channel positions : Front: L C R, Side: L R, Back: L R, LFE / Front: L C R, Side: L R, Back: C, LFE / Front: L C R, Side: L R, LFE
Sampling rate : 48.0 kHz
Frame rate : 93.750 FPS (512 SPF)
Bit depth : 24 bits
Compression mode : Lossless / Lossy / Lossy
Stream size : 4.31 GiB (35%)
Language : English
Default : Yes
Forced : No

Audio #2
ID : 3
Format : AC-3
Format/Info : Audio Coding 3
Codec ID : A_AC3
Duration : 2 h 20 min
Bit rate mode : Constant
Bit rate : 448 kb/s
Channel(s) : 6 channels
Channel positions : Front: L C R, Side: L R, LFE
Sampling rate : 48.0 kHz
Frame rate : 31.250 FPS (1536 SPF)
Bit depth : 16 bits
Compression mode : Lossy
Stream size : 449 MiB (4%)
Language : English
Service kind : Complete Main
Default : No
Forced : No

Audio #3
ID : 4
Format : AC-3
Format/Info : Audio Coding 3
Codec ID : A_AC3
Duration : 2 h 20 min
Bit rate mode : Constant
Bit rate : 448 kb/s
Channel(s) : 6 channels
Channel positions : Front: L C R, Side: L R, LFE
Sampling rate : 48.0 kHz
Frame rate : 31.250 FPS (1536 SPF)
Bit depth : 16 bits
Compression mode : Lossy
Stream size : 449 MiB (4%)
Language : Spanish
Service kind : Complete Main
Default : No
Forced : No

Audio #4
ID : 5
Format : AC-3
Format/Info : Audio Coding 3
Codec ID : A_AC3
Duration : 2 h 20 min
Bit rate mode : Constant
Bit rate : 448 kb/s
Channel(s) : 6 channels
Channel positions : Front: L C R, Side: L R, LFE
Sampling rate : 48.0 kHz
Frame rate : 31.250 FPS (1536 SPF)
Bit depth : 16 bits
Compression mode : Lossy
Stream size : 449 MiB (4%)
Language : French
Service kind : Complete Main
Default : No
Forced : No

Text #1
ID : 6
Format : VobSub
Codec ID : S_VOBSUB
Codec ID/Info : Picture based subtitle format used on DVDs
Duration : 2 h 12 min
Bit rate : 9 042 b/s
Count of elements : 1777
Stream size : 8.56 MiB (0%)
Language : English
Default : No
Forced : No

Text #2
ID : 7
Format : VobSub
Codec ID : S_VOBSUB
Codec ID/Info : Picture based subtitle format used on DVDs
Duration : 2 h 18 min
Bit rate : 6 967 b/s
Count of elements : 1463
Stream size : 6.91 MiB (0%)
Language : Spanish
Default : No
Forced : No

Text #3
ID : 8
Format : VobSub
Codec ID : S_VOBSUB
Codec ID/Info : Picture based subtitle format used on DVDs
Duration : 2 h 18 min
Bit rate : 6 730 b/s
Count of elements : 1562
Stream size : 6.67 MiB (0%)
Language : French
Default : No
Forced : No

Text #4
ID : 9
Format : VobSub
Codec ID : S_VOBSUB
Codec ID/Info : Picture based subtitle format used on DVDs
Duration : 2 h 13 min
Bit rate : 19.3 kb/s
Count of elements : 2458
Stream size : 18.4 MiB (0%)
Language : English
Default : No
Forced : No

Text #5
ID : 10
Format : VobSub
Codec ID : S_VOBSUB
Codec ID/Info : Picture based subtitle format used on DVDs
Duration : 6 s 173 ms
Bit rate : 11.4 kb/s
Count of elements : 2
Stream size : 8.58 KiB (0%)
Language : English
Default : No
Forced : No

Text #6
ID : 11
Format : VobSub
Codec ID : S_VOBSUB
Codec ID/Info : Picture based subtitle format used on DVDs
Bit rate : 0 b/s
Count of elements : 0
Stream size : 0.00 Byte (0%)
Language : English
Default : No
Forced : No

Text #7
ID : 12
Format : VobSub
Codec ID : S_VOBSUB
Codec ID/Info : Picture based subtitle format used on DVDs
Duration : 44 min 10 s
Bit rate : 57 b/s
Count of elements : 3
Stream size : 18.7 KiB (0%)
Language : Spanish
Default : No
Forced : No

Text #8
ID : 13
Format : VobSub
Codec ID : S_VOBSUB
Codec ID/Info : Picture based subtitle format used on DVDs
Duration : 2 h 8 min
Bit rate : 38 b/s
Count of elements : 7
Stream size : 36.4 KiB (0%)
Language : French
Default : No
Forced : No

Text #9
ID : 14
Format : VobSub
Codec ID : S_VOBSUB
Codec ID/Info : Picture based subtitle format used on DVDs
Bit rate : 0 b/s
Count of elements : 0
Stream size : 0.00 Byte (0%)
Language : English
Default : No
Forced : No

Text #10
ID : 15
Format : VobSub
Codec ID : S_VOBSUB
Codec ID/Info : Picture based subtitle format used on DVDs
Duration : 6 s 173 ms
Bit rate : 11.4 kb/s
Count of elements : 2
Stream size : 8.58 KiB (0%)
Language : English
Default : No
Forced : No









Enjoy!

Huge thanks and greetz fly out to "fate385" for all the tech support he provides.






Related Torrents
Type Name Size
Movies Red Sparrow 2018 1080p HC HDRip X264 AC3-EVO New!
1 year and 8 months ago
03.73 GB12 0
Movies Red Sparrow 2018 BRRip XviD AC3-EVO New!
1 year and 7 months ago
01.59 GB9 0
Movies Red Sparrow 2018 HC HDRip XviD AC3-EVO New!
1 year and 8 months ago
01.31 GB8 0
Movies Red Sparrow 2018 720p BRRip X264 AC3-EVO New!
1 year and 7 months ago
03.01 GB4 0
Movies/HD Red Sparrow 2018 1080p BluRay x264-DRONES New!
1 year and 7 months ago
011.01 GB2 0

<< 1 - 3 >>

justpm

(Power User)

ty

Dragoncarp

(Power User)

Thanks

<< 1 - 3 >>