Beware the Batman S01 1080p AC3 H265-d3g - Torrenting.com

Beware the Batman S01 1080p AC3 H265-d3g

[FreeLeech]

Category: TV/Packs| Size: 14.93 GB| Added: 2018-05-14 08:16:41

Download
SubscribeBookmark Report

0 0

Beware the Batman (2013)

Animation, Action, Adventure, Drama, Sci-Fi
Ratings: 7.3 / 10
Votes: 3,605 People
Batman, a crime-fighting vigilante of Gotham City, goes up against the underworld.
Actors: Anthony Ruivivar, Sumalee Montano, JB Blanc, Kurtwood Smith



Beware the Batman S01 1080p AC3 H265-d3g



This take on the classic comic book franchise mixes familiar characters with new villains not previously seen in animated form. As usual, Batman tries to rid Gotham City of evil, but he's not doing it alone. Assisting the Caped Crusader are retired MI-6 operative Alfred Pennyworth, who also serves as the superhero's butler, and lethal swordswoman Tatsu "Katana" Yamashiro. Among the villains who lead Gotham City's criminal underworld that Batman and his crew battle are Anarky, Professor Pyg, Mister Toad and Magpie.
First episode date: July 13, 2013

IMDb: https://www.imdb.com/title/tt2329077/




======================

======================

======================

======================

======================

======================

======================



Source: BDRip

Format : Matroska
Format version : Version 2
File size : 585 MiB
Duration : 21 min 55 s
Overall bit rate : 3 730 kb/s
Movie name : Beware.the.Batman.S01E01.BluRay.1080p.AC3.H265-d3g
Encoded date : UTC 2018-05-07 20:25:49
Writing application : DVDFab 10.0.9.0
Writing library : libebml v1.3.4 + libmatroska v1.4.5

Video
ID : 1
Format : HEVC
Format/Info : High Efficiency Video Coding
Format profile : Main@L4@Main
Codec ID : V_MPEGH/ISO/HEVC
Duration : 21 min 54 s
Bit rate : 3 346 kb/s
Width : 1 920 pixels
Height : 1 080 pixels
Display aspect ratio : 16:9
Frame rate mode : Constant
Frame rate : 23.976 (24000/1001) FPS
Color space : YUV
Chroma subsampling : 4:2:0
Bit depth : 8 bits
Bits/(Pixel*Frame) : 0.067
Stream size : 524 MiB (90%)
Default : Yes
Forced : No
Color range : Limited
Color primaries : BT.709
Transfer characteristics : BT.709
Matrix coefficients : BT.709

Audio
ID : 2
Format : AC-3
Format/Info : Audio Coding 3
Codec ID : A_AC3
Duration : 21 min 55 s
Bit rate mode : Constant
Bit rate : 384 kb/s
Channel(s) : 2 channels
Channel positions : Front: L R
Sampling rate : 48.0 kHz
Frame rate : 31.250 FPS (1536 SPF)
Bit depth : 16 bits
Compression mode : Lossy
Stream size : 60.2 MiB (10%)
Language : English
Service kind : Complete Main
Default : Yes
Forced : No










Enjoy!

Huge thanks and greetz fly out to "fate385" for all the tech support he provides.






<< 1 - 2 >>

yrjotapio

(Power User)

:t213:  :t142:

sarasim

(Power User)

Any chance of getting this reseeded? I've been stuck at half for more than 10 days

<< 1 - 2 >>