A Girl Walks Home Alone At Night 2014 1080p HC BRRip AC3-eSc - Torrenting.com

A Girl Walks Home Alone At Night 2014 1080p HC BRRip AC3-eSc

Category: Movies/Non-English| Size: 1.82 GB| Added: 2018-05-14 03:14:14

Download
SubscribeBookmark Report

0 0

A Girl Walks Home Alone at Night (2015)

Drama, Horror
Ratings: 7 / 10
Votes: 27,392 People
In the Iranian ghost-town Bad City, a place that reeks of death and loneliness, the townspeople are unaware they are being stalked...
Actors: Sheila Vand, Arash Marandi, Marshall Manesh, Mozhan MarnĂ², Dominic Rains, Rome Shadanloo, Milad Eghbali, Reza Sixo Safai, Ray Haratian, Ana Lily Amirpour, Pej Vahdat, Masuka The Cat, Maruti Garikiparthi




A.Girl.Walks.Home.Alone.At.Night.2014.1080p.HC.BRRip.AC3-eSc

Plot

In the Iranian ghost-town Bad City, a place that reeks of death and loneliness, the townspeople are unaware they are being stalked by a lonesome vampire.

https://www.imdb.com/title/tt2326554/

Cast

Sheila Vand ... The Girl
Arash Marandi ... Arash
Marshall Manesh ... Hossein 'The Junkie'
Mozhan Marno ... Atti 'The Prostitute'













Infomation


General
Format : MPEG-4
Format profile : Base Media / Version 2
Codec ID : mp42 (isom/iso2/avc1/mp41)
File size : 1.82 GiB
Duration : 1 h 40 min
Overall bit rate : 2 590 kb/s
Encoded date : UTC 2018-05-04 01:18:10
Tagged date : UTC 2018-05-04 02:23:22

Video
ID : 1
Format : AVC
Format/Info : Advanced Video Codec
Format profile : High@L4.1
Format settings : CABAC / 4 Ref Frames
Format settings, CABAC : Yes
Format settings, RefFrames : 4 frames
Codec ID : avc1
Codec ID/Info : Advanced Video Coding
Duration : 1 h 40 min
Bit rate : 2 200 kb/s
Width : 1 920 pixels
Height : 804 pixels
Display aspect ratio : 2.40:1
Frame rate mode : Variable
Frame rate : 23.976 FPS
Minimum frame rate : 11.989 FPS
Maximum frame rate : 23.981 FPS
Color space : YUV
Chroma subsampling : 4:2:0
Bit depth : 8 bits
Scan type : Progressive
Bits/(Pixel*Frame) : 0.059
Stream size : 1.55 GiB (85%)
Writing library : x264 core 142 r2479 dd79a61
Encoding settings : cabac=1 / ref=3 / deblock=1:-1:-1 / analyse=0x3:0x113 / me=hex / subme=7 / psy=1 / psy_rd=1.00:0.15 / mixed_ref=1 / me_range=16 / chroma_me=1 / trellis=1 / 8x8dct=1 / cqm=0 / deadzone=21,11 / fast_pskip=1 / chroma_qp_offset=-3 / threads=12 / lookahead_threads=2 / sliced_threads=0 / nr=0 / decimate=1 / interlaced=0 / bluray_compat=0 / constrained_intra=0 / bframes=3 / b_pyramid=2 / b_adapt=1 / b_bias=0 / direct=1 / weightb=1 / open_gop=0 / weightp=2 / keyint=240 / keyint_min=24 / scenecut=40 / intra_refresh=0 / rc_lookahead=40 / rc=2pass / mbtree=1 / bitrate=2200 / ratetol=1.0 / qcomp=0.60 / qpmin=0 / qpmax=69 / qpstep=4 / cplxblur=20.0 / qblur=0.5 / vbv_maxrate=62500 / vbv_bufsize=78125 / nal_hrd=none / filler=0 / ip_ratio=1.40 / aq=1:1.00
Language : English
Encoded date : UTC 2018-05-04 01:18:10
Tagged date : UTC 2018-05-04 01:18:10
Color range : Limited
Color primaries : BT.709
Transfer characteristics : BT.709
Matrix coefficients : BT.709
Menus : 4

Audio
ID : 2
Format : AC-3
Format/Info : Audio Coding 3
Codec ID : ac-3
Duration : 1 h 40 min
Bit rate mode : Constant
Bit rate : 384 kb/s
Channel(s) : 6 channels
Channel positions : Front: L C R, Side: L R, LFE
Sampling rate : 44.1 kHz
Frame rate : 28.711 FPS (1536 SPF)
Bit depth : 16 bits
Compression mode : Lossy
Stream size : 277 MiB (15%)
Title : Surround / Surround
Service kind : Complete Main
Default : Yes
Language : Persian
Alternate group : 1
Encoded date : UTC 2018-05-04 01:18:10
Tagged date : UTC 2018-05-04 01:18:10

Menu
ID : 4
Codec ID : text
Duration : 1 h 40 min
Encoded date : UTC 2018-05-04 02:23:22
Tagged date : UTC 2018-05-04 02:23:22
Menu For : 1
00:00:00.000 : Chapter 1
00:12:48.517 : Chapter 2
00:28:31.876 : Chapter 3
00:39:21.567 : Chapter 4
00:51:02.601 : Chapter 5
00:58:10.361 : Chapter 6
01:04:58.811 : Chapter 7
01:12:35.934 : Chapter 8
01:24:15.550 : Chapter 9
01:30:42.812 : Chapter 10
01:40:40.451 : Chapter 11
Bit rate mode : VBR



[center][/center]

<< 1 - 1 >>

Groovy1

(User)

No seeders even tho it showed 5 at the time. Gave up and got a different torrent.

<< 1 - 1 >>