The Guardian S01-03 WEBRip 1080p DD2 0 H265-d3g - Torrenting.com

The Guardian S01-03 WEBRip 1080p DD2 0 H265-d3g

[FreeLeech]

Category: TV/Packs| Size: 76.73 GB| Added: 2018-05-13 15:27:02

Download
SubscribeBookmark Report

5 1

The Guardian (2001)

Crime, Drama
Ratings: 7.4 / 10
Votes: 4,400 People
Nick Fallin is a hotshot lawyer working at his fathers ultrasuccessful Pittsburgh law firm. Unfortunately, the high life has gotten the best of...
Actors: Simon Baker, Alan Rosenberg, Raphael Sbarge, Dabney Coleman, Wendy Moniz-Grillo, Charles Malik Whitfield, Denise Dowse, Kathleen Chalfant



The Guardian S01-03 WEBRip 1080p DD2.0 H265-d3g



Hotshot lawyer Nick Fallin must perform community service at a child advocacy office or risk being disbarred when he's arrested for using drugs. While he serves his sentence, he continues to close lucrative deals at his father's ultra-successful law firm.
First episode date: September 25, 2001

IMDb: https://www.imdb.com/title/tt0285370/




======================

======================

======================

======================

======================

======================



Source: WEB-DL

Per Episode :
Video
ID : 1
Format : HEVC
Format/Info : High Efficiency Video Coding
Format profile : Main@L4@Main
Codec ID : V_MPEGH/ISO/HEVC
Duration : 44 min 49 s
Bit rate : 3 389 kb/s
Width : 1 920 pixels
Height : 1 080 pixels
Display aspect ratio : 16:9
Frame rate mode : Constant
Frame rate : 23.976 (24000/1001) FPS
Color space : YUV
Chroma subsampling : 4:2:0
Bit depth : 8 bits
Bits/(Pixel*Frame) : 0.068
Stream size : 1.06 GiB (93%)
Default : Yes
Forced : No
Color range : Limited
Color primaries : BT.709
Transfer characteristics : BT.709
Matrix coefficients : BT.709

Audio
ID : 2
Format : E-AC-3
Format/Info : Enhanced Audio Coding 3
Codec ID : A_EAC3
Duration : 44 min 50 s
Bit rate mode : Constant
Bit rate : 224 kb/s
Channel(s) : 2 channels
Channel positions : Front: L R
Sampling rate : 48.0 kHz
Frame rate : 187.500 FPS (256 SPF)
Compression mode : Lossy
Stream size : 71.8 MiB (6%)
Language : English
Service kind : Complete Main
Default : Yes
Forced : No

Text
ID : 3
Format : VobSub
Codec ID : S_VOBSUB
Codec ID/Info : Picture based subtitle format used on DVDs
Duration : 43 min 49 s
Bit rate : 16.9 kb/s
Count of elements : 929
Stream size : 5.31 MiB (0%)
Language : English
Default : No
Forced : No






[video=https://www.videodetective.com/tv/the-guardian-season-1/561627]



Enjoy!

Huge thanks and greetz fly out to "fate385" for all the tech support he provides.






<< 1 - 5 >>

paul1259

(Power User)

:t271:  thanx  :t289:

Alwyn1940

(Power User)

thanks  :t164:

Softstring

(VIP)

Many Thanks.......:t70:

bigbadmojo

(Power User)

:t265: Thanks

czarnibog

(Power User)

not sure if it's the files or a system bug but 2 of these so far have crashed VLC. Plays in MPC-HC but first time this has happened in VLC and haven't had problems playing anything else.

Normally plays HEVC fine, video appears a bit sluggish in parts as if it's cpu intensive

<< 1 - 5 >>