Snatch S01E01 WEBRip 1080p AC3 H265-d3g - Torrenting.com

Snatch S01E01 WEBRip 1080p AC3 H265-d3g

[FreeLeech]

Category: TV/Packs| Size: 9.60 GB| Added: 2018-05-13 06:49:12

Download
SubscribeBookmark Report

2 0

Snatch (2017)

Comedy, Crime
Ratings: 6.9 / 10
Votes: 3,269 People
A group of up-and-coming hustlers who stumble upon a truck-load of stolen gold bullion are suddenly thrust into the high-stakes world of organized...
Actors: Rupert Grint, Luke Pasqualino, Lucien Laviscount, Phoebe Dynevor, Juliet Aubrey, Tamer Hassan, Dougray Scott, Pau Poch, Marc Warren, Stephanie Leonidas, Daniel Fathers, Tristán Ulloa, Ian Gelder, Úrsula Corberó



Snatch S01 WEBRip 1080p AC3 H265-d3g



This drama, starring Rupert Grint, is loosely based on the popular movie of the same name -- and is inspired by a real-life heist in London. When a group of hustlers in their 20s discover stolen gold bullion, they are thrust into the high-stakes world of organized crime. The hustlers must work fast to navigate the dangerous waters of London's underworld, which proves to be full of rogue cops, local villains, international mobsters and more. Grint plays the role of the utterly posh Charlie Cavendish, and also serves as an executive producer.
First episode date: March 16, 2017

IMDb: https://www.imdb.com/title/tt5992164/




======================

======================

======================

======================



Source: WEBl-DL

Format : Matroska
Format version : Version 2
File size : 1.07 GiB
Duration : 43 min 21 s
Overall bit rate : 3 526 kb/s
Movie name : Snatch.S01E01.WEBRip.1080p.AC3.H265-d3g
Encoded date : UTC 2018-05-07 19:59:40
Writing application : DVDFab 10.0.9.0
Writing library : libebml v1.3.4 + libmatroska v1.4.5

Video
ID : 1
Format : HEVC
Format/Info : High Efficiency Video Coding
Format profile : Main@L4@Main
Codec ID : V_MPEGH/ISO/HEVC
Duration : 43 min 20 s
Bit rate : 3 386 kb/s
Width : 1 920 pixels
Height : 1 080 pixels
Display aspect ratio : 16:9
Frame rate mode : Constant
Frame rate : 23.976 (24000/1001) FPS
Color space : YUV
Chroma subsampling : 4:2:0
Bit depth : 8 bits
Bits/(Pixel*Frame) : 0.068
Stream size : 1.02 GiB (96%)
Default : Yes
Forced : No
Color range : Limited
Color primaries : BT.709
Transfer characteristics : BT.709
Matrix coefficients : BT.709

Audio
ID : 2
Format : AC-3
Format/Info : Audio Coding 3
Codec ID : A_AC3
Duration : 43 min 21 s
Bit rate mode : Constant
Bit rate : 128 kb/s
Channel(s) : 2 channels
Channel positions : Front: L R
Sampling rate : 48.0 kHz
Frame rate : 31.250 FPS (1536 SPF)
Bit depth : 16 bits
Compression mode : Lossy
Stream size : 39.7 MiB (4%)
Language : English
Service kind : Complete Main
Default : Yes
Forced : No

Text
ID : 3
Format : VobSub
Codec ID : S_VOBSUB
Codec ID/Info : Picture based subtitle format used on DVDs
Duration : 42 min 25 s
Bit rate : 11.9 kb/s
Count of elements : 593
Stream size : 3.61 MiB (0%)
Language : English
Default : No
Forced : No









Enjoy!

Huge thanks and greetz fly out to "fate385" for all the tech support he provides.






Related Torrents
Type Name Size
TV/x264 HD Snatch S01E01 720p WEB X264-DEFLATE New!
2 years and 8 months ago
0624.48 MB1 0
TV/x264 HD Snatch S01E01 1080p WEB X264-DEFLATE New!
2 years and 8 months ago
01.50 GB1 0
TV/SD-x264 Snatch S01E01 WEB X264-DEFLATE New!
2 years and 8 months ago
0296.47 MB0 0

<< 1 - 6 >>

Softstring

(Power User)

Many Thanks......:t70:

paul1259

(Power User)

:t318:  Thank you  :t304:

Alwyn1940

(Power User)

thanks :t304:

stonecold

(Power User)

thank u  :t222:

JoJo2017

(Power User)

Thank you :t70:

bigbadmojo

(Power User)

:t142:

<< 1 - 6 >>