Impractical Jokers S07E10 Pulling The Rug 720p WEB-DL x264-eSc - Torrenting.com

Impractical Jokers S07E10 Pulling The Rug 720p WEB-DL x264-eSc

Category: TV/x264 HD| Size: 636.38 MB| Added: 2018-05-12 21:45:14

Download
SubscribeBookmark Report

0 0

Impractical Jokers (2011)

Comedy, Reality-TV
Ratings: 8.6 / 10
Votes: 29,361 People
Q, Sal, Joe and Murr are real-life best friends who love challenging each other to the most outrageous dares and stunts ever caught on hidden...
Actors: Brian Quinn, James Murray, Sal Vulcano, Joe Gatto




Impractical.Jokers.S07E10.Pulling.The.Rug.720p.WEB-DL.x264-eSc

Plot

Four longtime friends take dares to outrageous new levels in truTV's hilarious series Impractical Jokers. Q, Murr, Joe and Sal bravely face some of the most unbelievably awkward and brazen hijinks yet, daring each other with over-the-top challenges that are guaranteed to set a new side-splitting standard.

http://www.tvmaze.com/shows/1139/impractical-jokers

Cast

Sal Vulcano ... Himself
Joe Gatto ... Himself
Brian Quinn ... Himself
James Murray ... Himself









Infomation


General
Format : Matroska
Format version : Version 4 / Version 2
File size : 636 MiB
Duration : 24 min 43 s
Overall bit rate : 3 599 kb/s
Encoded date : UTC 2018-05-12 05:38:25
Writing application : mkvmerge v22.0.0 ('At The End Of The World') 64-bit
Writing library : libebml v1.3.5 + libmatroska v1.4.8

Video
ID : 1
Format : AVC
Format/Info : Advanced Video Codec
Format profile : High@L3.1
Format settings : CABAC / 4 Ref Frames
Format settings, CABAC : Yes
Format settings, RefFrames : 4 frames
Codec ID : V_MPEG4/ISO/AVC
Duration : 24 min 43 s
Bit rate : 3 472 kb/s
Width : 1 280 pixels
Height : 720 pixels
Display aspect ratio : 16:9
Frame rate mode : Constant
Frame rate : 29.970 FPS
Color space : YUV
Chroma subsampling : 4:2:0
Bit depth : 8 bits
Scan type : Progressive
Bits/(Pixel*Frame) : 0.126
Stream size : 614 MiB (96%)
Writing library : x264 core 142 r2479 dd79a61
Encoding settings : cabac=1 / ref=3 / deblock=1:0:0 / analyse=0x3:0x113 / me=hex / subme=7 / psy=1 / psy_rd=1.00:0.00 / mixed_ref=1 / me_range=16 / chroma_me=1 / trellis=1 / 8x8dct=1 / cqm=0 / deadzone=21,11 / fast_pskip=1 / chroma_qp_offset=-2 / threads=12 / lookahead_threads=2 / sliced_threads=0 / nr=0 / decimate=1 / interlaced=0 / bluray_compat=0 / constrained_intra=0 / bframes=3 / b_pyramid=2 / b_adapt=1 / b_bias=0 / direct=1 / weightb=1 / open_gop=0 / weightp=2 / keyint=300 / keyint_min=30 / scenecut=40 / intra_refresh=0 / rc_lookahead=40 / rc=crf / mbtree=1 / crf=20.0 / qcomp=0.60 / qpmin=0 / qpmax=69 / qpstep=4 / vbv_maxrate=17500 / vbv_bufsize=17500 / crf_max=0.0 / nal_hrd=none / filler=0 / ip_ratio=1.40 / aq=1:1.00
Default : Yes
Forced : No
Color range : Limited
Color primaries : BT.709
Transfer characteristics : BT.709
Matrix coefficients : BT.709

Audio
ID : 2
Format : AAC
Format/Info : Advanced Audio Codec
Format profile : LC
Codec ID : A_AAC-2
Duration : 24 min 43 s
Bit rate : 124 kb/s
Channel(s) : 2 channels
Channel positions : Front: L R
Sampling rate : 48.0 kHz
Frame rate : 46.875 FPS (1024 SPF)
Compression mode : Lossy
Stream size : 22.0 MiB (3%)
Title : Stereo
Language : English
Default : Yes
Forced : No



[center][/center]
Related Torrents
Type Name Size
TV/x264 HD Impractical Jokers S07E10 720p WEB x264-TBS New!
1 year and 4 months ago
0570.40 MB4 0
TV/SD-x264 Impractical Jokers S07E10 Pulling The Rug WEB-DL x264-eSc New!
1 year and 7 months ago
0256.86 MB0 0