Pretty Little Liars S01-07 WEBRip 1080p DD5 1 H265-d3g - Torrenting.com

Pretty Little Liars S01-07 WEBRip 1080p DD5 1 H265-d3g

[FreeLeech]

Category: TV/Packs| Size: 161.72 GB| Added: 2018-05-02 22:17:03

Download
SubscribeBookmark Report

3 0

Pretty Little Liars (2010)

Drama, Mystery, Romance, Thriller
Ratings: 7.4 / 10
Votes: 144,192 People
Four friends band together against an anonymous foe who threatens to reveal their darkest secrets, while also investigating the...
Actors: Troian Bellisario, Ashley Benson, Lucy Hale, Shay Mitchell, Sasha Pieterse, Ian Harding, Laura Leighton, Janel Parrish, Tyler Blackburn, Keegan Allen, Holly Marie Combs, Chad Lowe




Pretty Little Liars S01-07 WEBRip 1080p DD5.1 H265-d3g



As time has passed since Alison, then the queen bee of the bunch, went missing. Spencer, Aria, Hanna and Emily have gone on with their lives, though they've grown apart. As the years go by, each girl finds herself facing a new set of challenges when anonymous text messages from "A" threaten to expose all their secrets -- both old secrets the girls were sure only Alison knew, and newer secrets developed after Alison's disappearance. Who is "A" and how does he or she know the things he or she knows? Based on the series of novels by Sara Shepard.
First episode date: June 8, 2010

IMDb: https://www.imdb.com/title/tt1578873/

IMDb: https://www.imdb.com/title/tt2322158/




======================

======================

======================

======================

======================

======================

======================



Source: WEB-DL

Format : Matroska
Format version : Version 2
File size : 1.02 GiB
Duration : 44 min 28 s
Overall bit rate : 3 285 kb/s
Movie name : Pretty Little Liars S01E01 WEBRip 1080p DD5.1 H265-d3g
Encoded date : UTC 2018-05-01 12:47:53
Writing application : DVDFab 10.0.9.0
Writing library : libebml v1.3.4 + libmatroska v1.4.5

Video
ID : 1
Format : HEVC
Format/Info : High Efficiency Video Coding
Format profile : Main@L4@Main
Codec ID : V_MPEGH/ISO/HEVC
Duration : 44 min 26 s
Bit rate : 2 824 kb/s
Width : 1 920 pixels
Height : 1 080 pixels
Display aspect ratio : 16:9
Frame rate mode : Constant
Frame rate : 23.976 (24000/1001) FPS
Color space : YUV
Chroma subsampling : 4:2:0
Bit depth : 8 bits
Bits/(Pixel*Frame) : 0.057
Stream size : 898 MiB (86%)
Default : Yes
Forced : No
Color range : Limited
Color primaries : BT.709
Transfer characteristics : BT.709
Matrix coefficients : BT.709

Audio
ID : 2
Format : AC-3
Format/Info : Audio Coding 3
Codec ID : A_AC3
Duration : 44 min 28 s
Bit rate mode : Constant
Bit rate : 448 kb/s
Channel(s) : 6 channels
Channel positions : Front: L C R, Side: L R, LFE
Sampling rate : 48.0 kHz
Frame rate : 31.250 FPS (1536 SPF)
Bit depth : 16 bits
Compression mode : Lossy
Stream size : 142 MiB (14%)
Language : English
Service kind : Complete Main
Default : Yes
Forced : No

Text
ID : 3
Format : VobSub
Codec ID : S_VOBSUB
Codec ID/Info : Picture based subtitle format used on DVDs
Duration : 43 min 44 s
Bit rate : 12.3 kb/s
Count of elements : 727
Stream size : 3.85 MiB (0%)
Language : English
Default : No
Forced : No








Enjoy!

Huge thanks and greetz fly out to "fate385" for all the tech support he provides.






Related Torrents
Type Name Size
TV/SD-x264 Pretty Little Liars S07E09 XviD-AFG New!
3 years and 1 month ago
0328.04 MB1 0
TV/SD-x264 Pretty Little Liars S07E10 XviD-AFG New!
3 years and 3 weeks ago
0296.00 MB1 0
TV/SD-x264 Pretty Little Liars S07E07 XviD-AFG New!
3 years and 1 month ago
0327.63 MB1 0
TV/SD-x264 Pretty Little Liars S07E08 XviD-AFG New!
3 years and 1 month ago
0332.34 MB1 0
TV/SD-x264 Pretty Little Liars S07E11 XviD-AFG New!
2 years and 5 months ago
0363.08 MB1 0

<< 1 - 5 >>

Softstring

(Power User)

Many Thanks......:t70:

Merlijntje

(Power User)

Many thanks for this super present. I am very glad with it. Kindest regards, Merlijntje
Request fast seed .seeding at low speed of 80-120kb/s

GEMINI4341

(Power User)

:t327: THANK YOU

bigal777au

(Power User)

Pretty Little Liars

<< 1 - 5 >>