Desolation 2017 1080p WEB-DL x264 AC3-eSc - Torrenting.com

Desolation 2017 1080p WEB-DL x264 AC3-eSc

Category: Movies| Size: 1.38 GB| Added: 2018-05-02 06:04:03

Download
SubscribeBookmark Report

0 0

Desolation (2017)

Drama, Horror, Thriller
Ratings: 4.5 / 10
Votes: 907 People
A mother takes her son and her best friend on a trip into remote wilderness to scatter his fathers ashes; they must confront their fears when a lone hiker...
Actors: Toby Nichols, Jaimi Paige, Alyshia Ochse, Claude Duhamel




Desolation.2017.1080p.WEB-DL.x264.AC3-eSc

Plot

A mother takes her son and her best friend on a trip into remote wilderness to scatter his father's ashes; they must confront their fears when a lone hiker begins following them.

https://www.imdb.com/title/tt5047400/

Cast

Toby Nichols ... Sam
Jaimi Paige ... Abby
Alyshia Ochse ... Jen
Claude Duhamel ... Hiker













Infomation


General
Format : MPEG-4
Format profile : Base Media / Version 2
Codec ID : mp42 (isom/iso2/avc1/mp41)
File size : 1.38 GiB
Duration : 1 h 16 min
Overall bit rate : 2 589 kb/s
Encoded date : UTC 2018-05-01 21:48:09
Tagged date : UTC 2018-05-01 22:36:27

Video
ID : 1
Format : AVC
Format/Info : Advanced Video Codec
Format profile : High@L4.1
Format settings : CABAC / 4 Ref Frames
Format settings, CABAC : Yes
Format settings, RefFrames : 4 frames
Codec ID : avc1
Codec ID/Info : Advanced Video Coding
Duration : 1 h 16 min
Bit rate : 2 200 kb/s
Width : 1 920 pixels
Height : 1 080 pixels
Display aspect ratio : 16:9
Frame rate mode : Variable
Frame rate : 23.976 FPS
Minimum frame rate : 11.989 FPS
Maximum frame rate : 23.981 FPS
Color space : YUV
Chroma subsampling : 4:2:0
Bit depth : 8 bits
Scan type : Progressive
Bits/(Pixel*Frame) : 0.044
Stream size : 1.17 GiB (85%)
Writing library : x264 core 142 r2479 dd79a61
Encoding settings : cabac=1 / ref=3 / deblock=1:-1:-1 / analyse=0x3:0x113 / me=hex / subme=7 / psy=1 / psy_rd=1.00:0.15 / mixed_ref=1 / me_range=16 / chroma_me=1 / trellis=1 / 8x8dct=1 / cqm=0 / deadzone=21,11 / fast_pskip=1 / chroma_qp_offset=-3 / threads=12 / lookahead_threads=2 / sliced_threads=0 / nr=0 / decimate=1 / interlaced=0 / bluray_compat=0 / constrained_intra=0 / bframes=3 / b_pyramid=2 / b_adapt=1 / b_bias=0 / direct=1 / weightb=1 / open_gop=0 / weightp=2 / keyint=240 / keyint_min=24 / scenecut=40 / intra_refresh=0 / rc_lookahead=40 / rc=2pass / mbtree=1 / bitrate=2200 / ratetol=1.0 / qcomp=0.60 / qpmin=0 / qpmax=69 / qpstep=4 / cplxblur=20.0 / qblur=0.5 / vbv_maxrate=62500 / vbv_bufsize=78125 / nal_hrd=none / filler=0 / ip_ratio=1.40 / aq=1:1.00
Language : English
Encoded date : UTC 2018-05-01 21:48:09
Tagged date : UTC 2018-05-01 21:48:09
Color range : Limited
Color primaries : BT.709
Transfer characteristics : BT.709
Matrix coefficients : BT.709
Menus : 4

Audio
ID : 2
Format : AC-3
Format/Info : Audio Coding 3
Codec ID : ac-3
Duration : 1 h 16 min
Bit rate mode : Constant
Bit rate : 384 kb/s
Channel(s) : 6 channels
Channel positions : Front: L C R, Side: L R, LFE
Sampling rate : 48.0 kHz
Frame rate : 31.250 FPS (1536 SPF)
Bit depth : 16 bits
Compression mode : Lossy
Stream size : 209 MiB (15%)
Title : Surround / Surround
Language : English
Service kind : Complete Main
Default : Yes
Alternate group : 1
Encoded date : UTC 2018-05-01 21:48:09
Tagged date : UTC 2018-05-01 21:48:09

Menu
ID : 4
Codec ID : text
Duration : 1 h 16 min
Encoded date : UTC 2018-05-01 22:36:27
Tagged date : UTC 2018-05-01 22:36:27
Bit rate mode : CBR
Menu For : 1
00:00:00.000 : 1
00:09:57.931 : 2
00:22:08.495 : 3
00:33:25.172 : 4
00:43:41.538 : 5
00:55:11.144 : 6
01:03:40.153 : 7
01:14:03.569 : 8



[center][/center]