Black Panther 2018 BRRip 1080p DD5 1 H265-d3g - Torrenting.com

Black Panther 2018 BRRip 1080p DD5 1 H265-d3g

Category: Movies/x265| Size: 3.16 GB| Added: 2018-05-02 05:52:44

Download
SubscribeBookmark Report

2 0

Black Panther (2018)

Action, Adventure, Sci-Fi
Ratings: 7.3 / 10
Votes: 539,299 People
Jordan, and Lupita Nyongo. TChalla, heir to the hidden but advanced kingdom of Wakanda, must step forward to lead his people into a new future and must confront a...
Actors: Chadwick Boseman, Michael B. Jordan, Lupita Nyong'o, Danai Gurira, Martin Freeman, Daniel Kaluuya, Letitia Wright, Winston Duke, Sterling K. Brown, Angela Bassett, Forest Whitaker, Andy Serkis, Florence Kasumba, John Kani, David S. Lee




Black Panther 2018 BRRip 1080p DD5.1 H265-d3g



After the death of his father, T'Challa returns home to the African nation of Wakanda to take his rightful place as king. When a powerful enemy suddenly reappears, T'Challa's mettle as king -- and as Black Panther -- gets tested when he's drawn into a conflict that puts the fate of Wakanda and the entire world at risk. Faced with treachery and danger, the young king must rally his allies and release the full power of Black Panther to defeat his foes and secure the safety of his people.
Release date: February 16, 2018 (USA) Trending

IMDb: https://www.imdb.com/title/tt1825683/

IMDb: https://www.imdb.com/title/tt2322158/




======================

======================

======================



Source: SPARKS BDRip

Format : Matroska
Format version : Version 2
File size : 3.16 GiB
Duration : 2 h 14 min
Overall bit rate : 3 366 kb/s
Movie name : Black Panther 2018 BRRip 1080p DD5.1 H265-d3g
Encoded date : UTC 2018-05-02 02:40:04
Writing application : DVDFab 10.0.9.0
Writing library : libebml v1.3.4 + libmatroska v1.4.5

Video
ID : 1
Format : HEVC
Format/Info : High Efficiency Video Coding
Format profile : Main@L4@Main
Codec ID : V_MPEGH/ISO/HEVC
Duration : 2 h 14 min
Bit rate : 2 910 kb/s
Width : 1 920 pixels
Height : 808 pixels
Display aspect ratio : 2.40:1
Frame rate mode : Constant
Frame rate : 23.976 (24000/1001) FPS
Color space : YUV
Chroma subsampling : 4:2:0
Bit depth : 8 bits
Bits/(Pixel*Frame) : 0.078
Stream size : 2.73 GiB (86%)
Default : Yes
Forced : No
Color range : Limited
Color primaries : BT.709
Transfer characteristics : BT.709
Matrix coefficients : BT.709

Audio
ID : 2
Format : AC-3
Format/Info : Audio Coding 3
Codec ID : A_AC3
Duration : 2 h 14 min
Bit rate mode : Constant
Bit rate : 448 kb/s
Channel(s) : 6 channels
Channel positions : Front: L C R, Side: L R, LFE
Sampling rate : 48.0 kHz
Frame rate : 31.250 FPS (1536 SPF)
Bit depth : 16 bits
Compression mode : Lossy
Stream size : 431 MiB (13%)
Language : English
Service kind : Complete Main
Default : Yes
Forced : No

Text
ID : 3
Format : VobSub
Codec ID : S_VOBSUB
Codec ID/Info : Picture based subtitle format used on DVDs
Duration : 2 h 14 min
Bit rate : 6 096 b/s
Count of elements : 1835
Stream size : 5.85 MiB (0%)
Language : English
Default : No
Forced : No








Enjoy!

Huge thanks and greetz fly out to "fate385" for all the tech support he provides.






Related Torrents
Type Name Size
Movies Black Panther 2018 BRRip XviD AC3-EVO New!
1 year and 4 months ago
01.52 GB47 4
Movies Black Panther 2018 1080p BRRip X264 AC3-EVO New!
1 year and 4 months ago
04.16 GB26 0
Movies/HD Black Panther 2018 1080p BluRay x264-SPARKS New!
1 year and 4 months ago
011.00 GB10 0
Movies/x265 Marvel's Black Panther 2018 BluRay 10Bit 1080p Multi Multi H265-d3g [Freeleech]New!
1 year and 4 months ago
012.88 GB4 0
Movies/HD Black Panther 2018 720p BluRay x264-SPARKS New!
1 year and 4 months ago
06.60 GB4 0

<< 1 - 2 >>

jcc0312

(User)

yes yes yes

Moodyone

(Power User)

Thank you, I love these H265 Films and Tv.

<< 1 - 2 >>