Grease 2 (1982) BluRay 10Bit 1080p DD5 1 H265-d3g - Torrenting.com

Grease 2 (1982) BluRay 10Bit 1080p DD5 1 H265-d3g

Category: Movies/x265| Size: 2.45 GB| Added: 2018-05-01 23:44:39

Download
SubscribeBookmark Report

1 0

Grease 2 (1982)

Comedy, Drama, Musical, Romance
Ratings: 4.3 / 10
Votes: 30,768 People
An English student at a 1960s American high school has to prove himself to the leader of a girls gang whose members can only date greasers.
Actors: Maxwell Caulfield, Michelle Pfeiffer, Lorna Luft, Maureen Teefy, Alison Price, Pamela Adlon, Adrian Zmed, Peter Frechette, Christopher McDonald, Leif Green, Didi Conn, Eve Arden, Sid Caesar, Dody Goodman, Tab Hunter




Grease 2 (1982) BluRay 10Bit 1080p DD5.1 H265-d3g



Stephanie Zinone (Michelle Pfeiffer) is the leader of Rydell High School's Pink Ladies, a gang of girls who are counterparts of the school's group of greasers called the T-Birds. Stephanie is tired of her relationship with top T-Bird Johnny Nogerelli (Adrian Zmed), so she breaks up with him and quickly catches the eye of English exchange student Michael Carrington (Maxwell Caulfield). Hoping to win her over, Michael tries to overcome his nerdy ways while holding off the jealous Johnny.
Release date: June 11, 1982 (USA)

IMDb: https://www.imdb.com/title/tt0084021/

IMDb: https://www.imdb.com/title/tt2322158/




======================

======================

======================



Source: Full BluRay BD-R

Format : Matroska
Format version : Version 2
File size : 2.45 GiB
Duration : 1 h 54 min
Overall bit rate : 3 069 kb/s
Movie name : Grease 2 (1982) BluRay 10Bit 1080p DD5.1 H265-d3g
Encoded date : UTC 2018-04-30 11:31:18
Writing application : DVDFab 10.0.9.0
Writing library : libebml v1.3.4 + libmatroska v1.4.5

Video
ID : 1
Format : HEVC
Format/Info : High Efficiency Video Coding
Format profile : Main 10@L4@Main
Codec ID : V_MPEGH/ISO/HEVC
Duration : 1 h 54 min
Bit rate : 2 598 kb/s
Width : 1 920 pixels
Height : 816 pixels
Display aspect ratio : 2.35:1
Frame rate mode : Constant
Frame rate : 23.976 (24000/1001) FPS
Color space : YUV
Chroma subsampling : 4:2:0
Bit depth : 10 bits
Bits/(Pixel*Frame) : 0.069
Stream size : 2.08 GiB (85%)
Default : Yes
Forced : No
Color range : Limited
Color primaries : BT.709
Transfer characteristics : BT.709
Matrix coefficients : BT.709

Audio
ID : 2
Format : AC-3
Format/Info : Audio Coding 3
Codec ID : A_AC3
Duration : 1 h 54 min
Bit rate mode : Constant
Bit rate : 448 kb/s
Channel(s) : 6 channels
Channel positions : Front: L C R, Side: L R, LFE
Sampling rate : 48.0 kHz
Frame rate : 31.250 FPS (1536 SPF)
Bit depth : 16 bits
Compression mode : Lossy
Stream size : 367 MiB (15%)
Language : English
Service kind : Complete Main
Default : Yes
Forced : No

Text #1
ID : 3
Format : VobSub
Codec ID : S_VOBSUB
Codec ID/Info : Picture based subtitle format used on DVDs
Duration : 1 h 50 min
Bit rate : 10.3 kb/s
Count of elements : 1512
Stream size : 8.12 MiB (0%)
Language : English
Default : No
Forced : No








Enjoy!

Huge thanks and greetz fly out to "fate385" for all the tech support he provides.