Dreamgirls 2006 DirCut BluRay 10Bit 1080p DD5 1 H265-d3g - Torrenting.com

Dreamgirls 2006 DirCut BluRay 10Bit 1080p DD5 1 H265-d3g

Category: Movies/x265| Size: 3.01 GB| Added: 2018-05-01 23:37:23

Download
SubscribeBookmark Report

0 0

Dreamgirls (2006)

Drama, Music, Musical
Ratings: 6.5 / 10
Votes: 64,986 People
Dreamgirls is a movie starring Beyoncé, Jamie Foxx, and Eddie Murphy. A trio of black female soul singers cross over to the pop charts in the early 1960s, facing their own personal struggles along the way.
Actors: Jamie Foxx, Beyoncé, Eddie Murphy, Danny Glover, Jennifer Hudson, Anika Noni Rose, Keith Robinson, Sharon Leal, Hinton Battle, Mariah Iman Wilson, Yvette Cason, Ken Page, Ralph Louis Harris, Michael-Leon Wooley, Loretta Devine




Dreamgirls 2006 DirCut BluRay 10Bit 1080p DD5.1 H265-d3g



Deena (Beyonc Knowles),Effie (Jennifer Hudson) and Lorrell (Anika Noni Rose) form a music trio called the Dreamettes. When ambitious manager Curtis Taylor Jr. (Jamie Foxx) spots the act at a talent show, he offers the chance of a lifetime, to be backup singers for a national star (Eddie Murphy). Taylor takes creative control of the group and eventually pushes the singers into the spotlight. However, one becomes the star, forcing another out, which teaches them about the high cost of fame.
Release date: December 25, 2006 (USA)

IMDb: https://www.imdb.com/title/tt0443489/

IMDb: https://www.imdb.com/title/tt2322158/




======================

======================

======================



Source: Full BluRay BD-R

Format : Matroska
Format version : Version 2
File size : 3.01 GiB
Duration : 2 h 20 min
Overall bit rate : 3 071 kb/s
Movie name : Dreamgirls 2006 DirCut BluRay 10Bit 1080p DD5.1 H265-d3g
Encoded date : UTC 2018-04-30 18:45:53
Writing application : DVDFab 10.0.9.0
Writing library : libebml v1.3.4 + libmatroska v1.4.5

Video
ID : 1
Format : HEVC
Format/Info : High Efficiency Video Coding
Format profile : Main 10@L4@Main
Codec ID : V_MPEGH/ISO/HEVC
Duration : 2 h 20 min
Bit rate : 2 600 kb/s
Width : 1 920 pixels
Height : 820 pixels
Display aspect ratio : 2.35:1
Frame rate mode : Constant
Frame rate : 23.976 (24000/1001) FPS
Color space : YUV
Chroma subsampling : 4:2:0
Bit depth : 10 bits
Bits/(Pixel*Frame) : 0.069
Stream size : 2.55 GiB (85%)
Default : Yes
Forced : No
Color range : Limited
Color primaries : BT.709
Transfer characteristics : BT.709
Matrix coefficients : BT.709

Audio
ID : 2
Format : AC-3
Format/Info : Audio Coding 3
Codec ID : A_AC3
Duration : 2 h 20 min
Bit rate mode : Constant
Bit rate : 448 kb/s
Channel(s) : 6 channels
Channel positions : Front: L C R, Side: L R, LFE
Sampling rate : 48.0 kHz
Frame rate : 31.250 FPS (1536 SPF)
Bit depth : 16 bits
Compression mode : Lossy
Stream size : 450 MiB (15%)
Language : English
Service kind : Complete Main
Default : Yes
Forced : No

Text #1
ID : 3
Format : VobSub
Codec ID : S_VOBSUB
Codec ID/Info : Picture based subtitle format used on DVDs
Duration : 2 h 9 min
Bit rate : 11.2 kb/s
Count of elements : 1996
Stream size : 10.4 MiB (0%)
Language : English
Default : No
Forced : No

Text #2
ID : 4
Format : VobSub
Codec ID : S_VOBSUB
Codec ID/Info : Picture based subtitle format used on DVDs
Duration : 2 h 17 min
Bit rate : 11.0 kb/s
Count of elements : 2093
Stream size : 10.8 MiB (0%)
Language : English
Default : No
Forced : No









Enjoy!

Huge thanks and greetz fly out to "fate385" for all the tech support he provides.






<< 1 - 1 >>

<< 1 - 1 >>