Marley and Me-The Puppy Years 2011 BluRay 10Bit 1080p DD5 1 H265-d3g - Torrenting.com

Marley and Me-The Puppy Years 2011 BluRay 10Bit 1080p DD5 1 H265-d3g

Category: Movies/x265| Size: 2.26 GB| Added: 2018-05-01 23:32:43

Download
SubscribeBookmark Report

1 0

Crisis (2014)

Action, Drama, Thriller
Ratings: 7.2 / 10
Votes: 7,886 People
Centers on an idealistic Secret Service agent who finds himself at the center of an international crisis on his first day on the job. In his search for...
Actors: Dermot Mulroney, Rachael Taylor, Lance Gross, James Lafferty, Max Martini, Michael Beach, Stevie Lynn Jones, Halston Sage, Max Schneider, Joshua Erenberg, Gillian Anderson, Adam Scott Miller, Jessica Dean Turner, Almedia Lee Exum, Jason Bradley, Rod Hallett, Mark Valley, Brandon Ruiter, Sean M. Sullivan, Rammel Chan, M.J. Carey, Josh Bywater, Samuel Taylor




Marley and Me-The Puppy Years 2011 BluRay 10Bit 1080p DD5.1 H265-d3g



The world's worst talking canine (Grayson Russell) wreaks havoc on a dog contest.
Release date: June 1, 2011 (USA)

IMDb:

IMDb: https://www.imdb.com/title/tt2322158/




======================

======================

======================



Source: Full BluRay BD-R

Format : Matroska
Format version : Version 2
File size : 2.26 GiB
Duration : 1 h 26 min
Overall bit rate : 3 751 kb/s
Movie name : Marley and Me-The Puppy Years 2011 BluRay 10Bit 1080p DD5.1 H265-d3g
Encoded date : UTC 2018-04-30 19:07:21
Writing application : DVDFab 10.0.9.0
Writing library : libebml v1.3.4 + libmatroska v1.4.5

Video
ID : 1
Format : HEVC
Format/Info : High Efficiency Video Coding
Format profile : Main 10@L4@Main
Codec ID : V_MPEGH/ISO/HEVC
Duration : 1 h 26 min
Bit rate : 3 287 kb/s
Width : 1 920 pixels
Height : 1 080 pixels
Display aspect ratio : 16:9
Frame rate mode : Constant
Frame rate : 23.976 (24000/1001) FPS
Color space : YUV
Chroma subsampling : 4:2:0
Bit depth : 10 bits
Bits/(Pixel*Frame) : 0.066
Stream size : 1.98 GiB (88%)
Default : Yes
Forced : No
Color range : Limited
Color primaries : BT.709
Transfer characteristics : BT.709
Matrix coefficients : BT.709

Audio
ID : 2
Format : AC-3
Format/Info : Audio Coding 3
Codec ID : A_AC3
Duration : 1 h 26 min
Bit rate mode : Constant
Bit rate : 448 kb/s
Channel(s) : 6 channels
Channel positions : Front: L C R, Side: L R, LFE
Sampling rate : 48.0 kHz
Frame rate : 31.250 FPS (1536 SPF)
Bit depth : 16 bits
Compression mode : Lossy
Stream size : 276 MiB (12%)
Language : English
Service kind : Complete Main
Default : Yes
Forced : No

Text
ID : 3
Format : VobSub
Codec ID : S_VOBSUB
Codec ID/Info : Picture based subtitle format used on DVDs
Duration : 1 h 23 min
Bit rate : 14.4 kb/s
Count of elements : 1564
Stream size : 8.63 MiB (0%)
Language : English
Default : No
Forced : No








Enjoy!

Huge thanks and greetz fly out to "fate385" for all the tech support he provides.






Related Torrents
Type Name Size
TV/Packs Crisis S01 WEBRip 1080p DD5 1 H265-d3g [Freeleech]New!
1 year and 4 months ago
014.64 GB1 0